Papa Roach – LoveHateTragedy




Artist: Papa Roach
Year: 2002
Genre: Rock
Notes: Discogs
Add. Notes: UK Edition
Encoder: FLAC
Bitrate: ~1000 kBit/s (VBR)
Size: 710,82 MB
Hoster: Share-Online
Password: “slam” (without ” “)


Tracklist:

M-80 (Explosive Energy Movement) 2:26
Life Is A Bullet 4:05
Time And Time Again 2:58
Walking Thru Barbed Wire 3:04
Decompression Period 3:59
Born With Nothing, Die With Everything 3:49
She Loves Me Not 3:29
Singular Indestructible Droid 3:48
Black Clouds 4:01
Code Of Energy 4:04
Lovehatetragedy 3:13
Gouge Away 2:07
Never Said It 3:07

Click to open spoiler
Exact Audio Copy V0.99 prebeta 5 from 4. May 2009

EAC extraction logfile from 19. September 2010, 2:56

Papa Roach / LoveHateTragedy

Used drive : TSSTcorpCDDVDW TS-L633C Adapter: 2 ID: 0

Read mode : Secure
Utilize accurate stream : Yes
Defeat audio cache : Yes
Make use of C2 pointers : No

Read offset correction : 6
Overread into Lead-In and Lead-Out : No
Fill up missing offset samples with silence : Yes
Delete leading and trailing silent blocks : No
Null samples used in CRC calculations : Yes
Used interface : Native Win32 interface for Win NT & 2000

Used output format : Internal WAV Routines
Sample format : 44.100 Hz; 16 Bit; Stereo

TOC of the extracted CD

Track | Start | Length | Start sector | End sector
———————————————————
1 | 0:00.00 | 2:26.67 | 0 | 11016
2 | 2:26.67 | 4:05.02 | 11017 | 29393
3 | 6:31.69 | 2:58.38 | 29394 | 42781
4 | 9:30.32 | 3:04.68 | 42782 | 56649
5 | 12:35.25 | 3:59.27 | 56650 | 74601
6 | 16:34.52 | 3:49.40 | 74602 | 91816
7 | 20:24.17 | 3:29.43 | 91817 | 107534
8 | 23:53.60 | 3:48.62 | 107535 | 124696
9 | 27:42.47 | 4:01.53 | 124697 | 142824
10 | 31:44.25 | 4:04.37 | 142825 | 161161
11 | 35:48.62 | 3:13.15 | 161162 | 175651
12 | 39:02.02 | 2:07.68 | 175652 | 185244
13 | 41:09.70 | 3:05.72 | 185245 | 199191
14 | 46:47.67 | 13:08.50 | 210592 | 269741

Range status and errors

Selected range

Filename Z:\PAPA ROACH\2002 – LoveHateTragedy.wav

Peak level 99.9 %
Range quality 100.0 %
Test CRC CD0A6587
Copy CRC CD0A6587
Copy OK

No errors occurred

AccurateRip summary

Track 1 accurately ripped (confidence 44) [ABBFE968]
Track 2 accurately ripped (confidence 44) [28D94D36]
Track 3 accurately ripped (confidence 44) [74B07F10]
Track 4 accurately ripped (confidence 43) [67E365C3]
Track 5 accurately ripped (confidence 44) [B722F850]
Track 6 accurately ripped (confidence 44) [70EA4CC5]
Track 7 accurately ripped (confidence 44) [1A6D5F3E]
Track 8 accurately ripped (confidence 44) [573EB295]
Track 9 accurately ripped (confidence 44) [DB34ADC2]
Track 10 accurately ripped (confidence 44) [0385B3BA]
Track 11 accurately ripped (confidence 43) [1CBBD59A]
Track 12 accurately ripped (confidence 44) [E953723A]
Track 13 accurately ripped (confidence 45) [F6F2308E]

All tracks accurately ripped

End of status report

———————————————————————–

TRACK 02 AUDIO
TITLE “Life Is A Bullet”
ISRC USDW10200125
INDEX 00 02:26:24
INDEX 01 02:26:67
TRACK 03 AUDIO
TITLE “Time And Time Again”
ISRC USDW10200126
INDEX 01 06:31:69
TRACK 04 AUDIO
TITLE “Walking Thru Barbed Wire”
ISRC USDW10200127
INDEX 00 09:30:15
INDEX 01 09:30:32
TRACK 05 AUDIO
TITLE “Decompression Period”
ISRC USDW10200128
INDEX 01 12:35:25
TRACK 06 AUDIO
TITLE “Born With Nothing, Die With Everything”
ISRC USDW10200129
INDEX 01 16:34:52
TRACK 07 AUDIO
TITLE “She Loves Me Not”
ISRC USDW10200130
INDEX 01 20:24:17
TRACK 08 AUDIO
TITLE “Singular Indestructible Droid”
ISRC USDW10200131
INDEX 01 23:53:60
TRACK 09 AUDIO
TITLE “Black Clouds”
ISRC USDW10200132
INDEX 00 27:42:32
INDEX 01 27:42:47
TRACK 10 AUDIO
TITLE “Code Of Energy”
ISRC USDW10200133
INDEX 00 31:43:57
INDEX 01 31:44:25
TRACK 11 AUDIO
TITLE “LoveHateTragedy”
ISRC USDW10200134
INDEX 00 35:46:62
INDEX 01 35:48:62
TRACK 12 AUDIO
TITLE “Gouge Away”
ISRC USDW10200135
INDEX 00 39:00:37
INDEX 01 39:02:02
TRACK 13 AUDIO
TITLE “Never Said It”
ISRC USDW10200244
INDEX 00 41:08:37
INDEX 01 41:09:70

Leave a Reply

Your email address will not be published. Required fields are marked *

This site uses Akismet to reduce spam. Learn how your comment data is processed.