Papa Roach – Infest




Artist: Papa Roach
Year: 2000
Genre: Punk
Notes: Discogs
Add. Notes:
Cover incl.: Yes
Encoder: FLAC
Bitrate: ~1000 kBit/s (44.1 kHz/16 Bit/s)
Log & Cue incl.: Yes
Size: 494,05 MB
Password: “slam” (without ” “)


All Downloads/Hosters are compatible

Download 1
Turbobit.net
Rapidgator.net
KatFile.com
UploadRar.com
Download 2
Turbobit.net
Rapidgator.net
KatFile.com
UploadRar.com

Tracklist:

 01. Infest
02. Last Resort
03. Broken Home
04. Dead Cell
05. Between Angels and Insects
06. Blood Brothers
07. Revenge
08. Snakes
09. Never Enough
10. Binge
11. Thrown Away

EAC-Log, CUE-Sheed & NFO:

Click to open spoiler
Exact Audio Copy V0.99 prebeta 5 from 4. May 2009

EAC extraction logfile from 19. September 2010, 2:24

Papa Roach / Infest

Used drive : TSSTcorpCDDVDW TS-L633C Adapter: 2 ID: 0

Read mode : Secure
Utilize accurate stream : Yes
Defeat audio cache : Yes
Make use of C2 pointers : No

Read offset correction : 6
Overread into Lead-In and Lead-Out : No
Fill up missing offset samples with silence : Yes
Delete leading and trailing silent blocks : No
Null samples used in CRC calculations : Yes
Used interface : Native Win32 interface for Win NT & 2000

Used output format : Internal WAV Routines
Sample format : 44.100 Hz; 16 Bit; Stereo

TOC of the extracted CD

Track | Start | Length | Start sector | End sector
———————————————————
1 | 0:00.00 | 4:09.00 | 0 | 18674
2 | 4:09.00 | 3:19.67 | 18675 | 33666
3 | 7:28.67 | 3:41.63 | 33667 | 50304
4 | 11:10.55 | 3:06.30 | 50305 | 64284
5 | 14:17.10 | 3:54.35 | 64285 | 81869
6 | 18:11.45 | 3:33.60 | 81870 | 97904
7 | 21:45.30 | 3:41.70 | 97905 | 114549
8 | 25:27.25 | 3:30.20 | 114550 | 130319
9 | 28:57.45 | 3:35.32 | 130320 | 146476
10 | 32:33.02 | 3:47.73 | 146477 | 163574
11 | 36:21.00 | 9:37.52 | 163575 | 206901

Range status and errors

Selected range

Filename Z:\PAPA ROACH\2000 – Infest.wav

Peak level 100.0 %
Range quality 100.0 %
Test CRC F4A47F9A
Copy CRC F4A47F9A
Copy OK

No errors occurred

AccurateRip summary

Track 1 accurately ripped (confidence 5) [F3BF57BA]
Track 2 accurately ripped (confidence 5) [4AD70C1A]
Track 3 accurately ripped (confidence 5) [539202F1]
Track 4 accurately ripped (confidence 5) [3E4F13EB]
Track 5 accurately ripped (confidence 5) [9ED16490]
Track 6 accurately ripped (confidence 5) [E4223EAB]
Track 7 accurately ripped (confidence 5) [233C2EFB]
Track 8 accurately ripped (confidence 5) [A2EC7F58]
Track 9 accurately ripped (confidence 5) [2CD60283]
Track 10 accurately ripped (confidence 5) [4A7D1736]
Track 11 accurately ripped (confidence 4) [D54BDD46]

All tracks accurately ripped

End of status report

REM GENRE Nu Metal / Rapcore
REM DATE 2000
PERFORMER “Papa Roach”
TITLE “Infest”
FILE “2000 – Infest.flac” WAVE
TRACK 01 AUDIO
TITLE “Infest”
ISRC USDW10021714
INDEX 01 00:00:00
TRACK 02 AUDIO
TITLE “Last Resort”
ISRC USDW10021712
INDEX 01 04:09:00
TRACK 03 AUDIO
TITLE “Broken Home”
ISRC USDW10021715
INDEX 01 07:28:67
TRACK 04 AUDIO
TITLE “Dead Cell”
ISRC USDW10021711
INDEX 01 11:10:55
TRACK 05 AUDIO
TITLE “Between Angels And Insects”
ISRC USDW10021716
INDEX 01 14:17:10
TRACK 06 AUDIO
TITLE “Blood Brothers”
ISRC USDW10021717
INDEX 01 18:11:45
TRACK 07 AUDIO
TITLE “Revenge”
ISRC USDW10021718
INDEX 01 21:45:30
TRACK 08 AUDIO
TITLE “Snakes”
ISRC USDW10021719
INDEX 01 25:27:25
TRACK 09 AUDIO
TITLE “Never Enough”
ISRC USDW10021720
INDEX 01 28:57:45
TRACK 10 AUDIO
TITLE “Binge”
ISRC USDW10021721
INDEX 01 32:33:02
TRACK 11 AUDIO
TITLE “Thrown Away”
ISRC USDW10021722
INDEX 01 36:21:00


Leave a Reply

Your email address will not be published. Required fields are marked *

This site uses Akismet to reduce spam. Learn how your comment data is processed.