Papa Roach – Getting Away With Murder (UK Edition)




Artist: Papa Roach
Year: 2004
Genre: Rock
Notes: Discogs
Add. Notes: UK Edition
Cover incl.: No
Encoder: FLAC
Bitrate: ~1100 kBit/s (44.1 kHz/16 Bit/s)
Log & Cue incl.: Yes
Size: 427 MB
Password: “slam” (without ” “)


All Downloads/Hosters are compatible

Download 1
Turbobit.net
Rapidgator.net
KatFile.com
UploadRar.com
Download 2
Turbobit.net
Rapidgator.net
KatFile.com
UploadRar.com

Tracklist:

1 - Blood (Empty Promises) - 2:55
2 - Not Listening - 3:09
3 - Stop Looking Start Seeing - 3:08
4 - Take Me - 3:26
5 - Getting Away With Murder - 3:12
6 - Be Free - 3:17
7 - Done With You - 2:52
8 - Scars - 3:28
9 - Sometimes - 3:07
10 - Blanket Of Fear - 3:21
11 - Tyranny Of Normality - 2:40
12 - Do Or Die - 3:28
13 - Harder Than A Coffin Nail - 3:28
14 - Caught Dead - 3:06
Video - Making Of Getting Away With 
Murder 

EAC-Log, CUE-Sheed & NFO:

Click to open spoiler
Exact Audio Copy V0.99 prebeta 5 from 4. May 2009

EAC extraction logfile from 19. September 2010, 22:21

Papa Roach / Getting Away With Murder

Used drive : TSSTcorpCDDVDW TS-L633C Adapter: 2 ID: 0

Read mode : Secure
Utilize accurate stream : Yes
Defeat audio cache : Yes
Make use of C2 pointers : No

Read offset correction : 6
Overread into Lead-In and Lead-Out : No
Fill up missing offset samples with silence : Yes
Delete leading and trailing silent blocks : No
Null samples used in CRC calculations : Yes
Used interface : Native Win32 interface for Win NT & 2000

Used output format : Internal WAV Routines
Sample format : 44.100 Hz; 16 Bit; Stereo

TOC of the extracted CD

Track | Start | Length | Start sector | End sector
———————————————————
1 | 0:00.00 | 2:55.43 | 0 | 13167
2 | 2:55.43 | 3:09.62 | 13168 | 27404
3 | 6:05.30 | 3:08.00 | 27405 | 41504
4 | 9:13.30 | 3:26.01 | 41505 | 56955
5 | 12:39.31 | 3:12.26 | 56956 | 71381
6 | 15:51.57 | 3:17.64 | 71382 | 86220
7 | 19:09.46 | 2:52.00 | 86221 | 99120
8 | 22:01.46 | 3:28.14 | 99121 | 114734
9 | 25:29.60 | 3:07.74 | 114735 | 128833
10 | 28:37.59 | 3:21.66 | 128834 | 143974
11 | 31:59.50 | 2:40.20 | 143975 | 155994
12 | 34:39.70 | 3:28.05 | 155995 | 171599
13 | 38:08.00 | 3:28.22 | 171600 | 187221
14 | 41:36.22 | 3:04.34 | 187222 | 201055
15 | 47:12.56 | 20:34.73 | 212456 | 305078

Range status and errors

Selected range

Filename Z:\PAPA ROACH\2004 – Getting Away With Murder.wav

Peak level 96.6 %
Range quality 99.9 %
Test CRC 840FB362
Copy CRC 840FB362
Copy OK

No errors occurred

AccurateRip summary

Track 1 accurately ripped (confidence 12) [0E11FAEB]
Track 2 accurately ripped (confidence 12) [7616DF31]
Track 3 accurately ripped (confidence 12) [69CBA4CA]
Track 4 accurately ripped (confidence 12) [B89D00D1]
Track 5 accurately ripped (confidence 12) [26BECEDC]
Track 6 accurately ripped (confidence 12) [54701F68]
Track 7 accurately ripped (confidence 12) [905F67F0]
Track 8 accurately ripped (confidence 12) [3B83A6DF]
Track 9 accurately ripped (confidence 12) [E50E0777]
Track 10 accurately ripped (confidence 12) [894CAF44]
Track 11 accurately ripped (confidence 12) [11AF014D]
Track 12 accurately ripped (confidence 12) [6DD23197]
Track 13 accurately ripped (confidence 12) [83E20D86]
Track 14 accurately ripped (confidence 12) [8D09AEEA]

All tracks accurately ripped

End of status report

REM GENRE Alternative Metal
REM DATE 2004
CATALOG 0602498636435
PERFORMER “Papa Roach”
TITLE “Getting Away With Murder”
FILE “2004 – Getting Away With Murder.flac” WAVE
TRACK 01 AUDIO
TITLE “Blood [Empty Promises]”
ISRC USDW10400807
INDEX 01 00:00:00
TRACK 02 AUDIO
TITLE “Not Listening”
ISRC USDW10400811
INDEX 01 02:55:43
TRACK 03 AUDIO
TITLE “Stop Looking Start Seeing”
ISRC USDW10400814
INDEX 01 06:05:30
TRACK 04 AUDIO
TITLE “Take Me”
ISRC USDW10400815
INDEX 01 09:13:30
TRACK 05 AUDIO
TITLE “Getting Away With Murder”
ISRC USDW10400810
INDEX 01 12:39:31
TRACK 06 AUDIO
TITLE “Be Free”
ISRC USDW10400805
INDEX 00 15:50:59
INDEX 01 15:51:57
TRACK 07 AUDIO
TITLE “Done With You”
ISRC USDW10400809
INDEX 01 19:09:46
TRACK 08 AUDIO
TITLE “Scars”
ISRC USDW10400812
INDEX 01 22:01:46
TRACK 09 AUDIO
TITLE “Sometimes”
ISRC USDW10400813
INDEX 01 25:29:60
TRACK 10 AUDIO
TITLE “Blanket Of Fear”
ISRC USDW10400806
INDEX 01 28:37:59
TRACK 11 AUDIO
TITLE “Tyranny Of Normality”
ISRC USDW10400816
INDEX 00 31:57:32
INDEX 01 31:59:50
TRACK 12 AUDIO
TITLE “Do Or Die”
ISRC USDW10400808
INDEX 01 34:39:70
TRACK 13 AUDIO
TITLE “Harder Than A Coffin Nail”
ISRC USDW10400887
INDEX 00 38:05:00
INDEX 01 38:08:00
TRACK 14 AUDIO
TITLE “Caught Dead”
ISRC USDW10400889
INDEX 00 41:34:55
INDEX 01 41:36:22


Leave a Reply

Your email address will not be published. Required fields are marked *

This site uses Akismet to reduce spam. Learn how your comment data is processed.