Pantera – Vulgar Display Of Power




Artist: Pantera
Year: 1992
Genre: Metal
Notes: Discogs
Add. Notes:
Cover incl.: Yes
Encoder: FLAC
Bitrate: ~1000 kBit/s (44.1 kHz/16 Bit/s)
Log & Cue incl.: Yes
Size: 434,29 MB
Password: “slam” (without ” “)


All Downloads/Hosters are compatible

Download 1
Turbobit.net
Rapidgator.net
KatFile.com
UploadRar.com
Download 2
Turbobit.net
Rapidgator.net
KatFile.com
UploadRar.com

Tracklist:

1 - Mouth For War - 3:56
2 - A New Level - 2:57
3 - Walk - 5:15
4 - Fucking Hostile - 2:49
5 - This Love - 6:32
6 - Rise - 4:36
7 - No Good (Attack The Radical) - 4:50
8 - Live In A Hole - 4:59
9 - Regular People (Conceit) - 5:27
10 - By Demons Be Driven - 4:39
11 - Hollow - 5:45

EAC-Log, CUE-Sheed & NFO:

Click to open spoiler
Exact Audio Copy V1.1 from 23. June 2015

EAC extraction logfile from 14. April 2016, 9:11

Pantera / Vulgar Display Of Power [Atco, 7 91758-2, USA]

Used drive : PIONEER DVD-RW DVR-112D Adapter: 0 ID: 0

Read mode : Secure
Utilize accurate stream : Yes
Defeat audio cache : Yes
Make use of C2 pointers : No

Read offset correction : 48
Overread into Lead-In and Lead-Out : No
Fill up missing offset samples with silence : Yes
Delete leading and trailing silent blocks : No
Null samples used in CRC calculations : Yes
Used interface : Installed external ASPI interface

Used output format : User Defined Encoder
Selected bitrate : 1024 kBit/s
Quality : High
Add ID3 tag : No
Command line compressor : C:\Program Files\Exact Audio Copy\FLAC\FLAC.EXE
Additional command line options : -V -8 -T “Date=%year%” -T “Genre=%genre%” %source%

TOC of the extracted CD

Track | Start | Length | Start sector | End sector
———————————————————
1 | 0:00.32 | 3:56.38 | 32 | 17769
2 | 3:56.70 | 3:57.35 | 17770 | 35579
3 | 7:54.30 | 5:14.62 | 35580 | 59191
4 | 13:09.17 | 2:48.45 | 59192 | 71836
5 | 15:57.62 | 6:32.50 | 71837 | 101286
6 | 22:30.37 | 4:36.43 | 101287 | 122029
7 | 27:07.05 | 4:49.57 | 122030 | 143761
8 | 31:56.62 | 5:00.28 | 143762 | 166289
9 | 36:57.15 | 5:27.40 | 166290 | 190854
10 | 42:24.55 | 4:40.25 | 190855 | 211879
11 | 47:05.05 | 5:45.55 | 211880 | 237809

Range status and errors

Selected range

Filename C:\PabloDark\Pantera – Vulgar Display Of Power [Atco, 7 91758-2, USA].wav

Peak level 97.2 %
Extraction speed 7.0 X
Range quality 100.0 %
Test CRC 93E96A65
Copy CRC 93E96A65
Copy OK

No errors occurred

AccurateRip summary

Track 1 accurately ripped (confidence 22) [273B29C3] (AR v2)
Track 2 accurately ripped (confidence 22) [34D99C79] (AR v2)
Track 3 accurately ripped (confidence 21) [BA8CB467] (AR v2)
Track 4 accurately ripped (confidence 22) [771DB020] (AR v2)
Track 5 accurately ripped (confidence 21) [4112493B] (AR v2)
Track 6 accurately ripped (confidence 22) [00932570] (AR v2)
Track 7 accurately ripped (confidence 21) [23ED2EA7] (AR v2)
Track 8 accurately ripped (confidence 21) [91B65251] (AR v2)
Track 9 accurately ripped (confidence 21) [61954E20] (AR v2)
Track 10 accurately ripped (confidence 21) [7FEAF4FA] (AR v2)
Track 11 accurately ripped (confidence 21) [A4EFD6DF] (AR v2)

All tracks accurately ripped

End of status report

—- CUETools DB Plugin V2.1.6

[CTDB TOCID: YfJxs9AMwdP2zdBRo6NNjjfj3jM-] found
Submit result: YfJxs9AMwdP2zdBRo6NNjjfj3jM- has been confirmed
Track | CTDB Status
1 | (192/193) Accurately ripped
2 | (190/193) Accurately ripped, or (2/193) differs in 1 samples @00:58:15
3 | (192/193) Accurately ripped
4 | (192/193) Accurately ripped
5 | (192/193) Accurately ripped
6 | (191/193) Accurately ripped
7 | (191/193) Accurately ripped
8 | (192/193) Accurately ripped
9 | (192/193) Accurately ripped
10 | (190/193) Accurately ripped, or (2/193) differs in 1 samples @02:52:52
11 | (190/193) Accurately ripped

==== Log checksum 53E574386701E1A5F8C20B301E143EE98772B9C254EC1F18AC4D2BA59958BB20 ====

REM GENRE Groove / Thrash Metal
REM DATE 1992
REM DISCID AA0C620B
REM COMMENT “ExactAudioCopy v1.1”
CATALOG 0075679175827
PERFORMER “Pantera”
TITLE “Vulgar Display Of Power (7 91758-2)”
FILE “Pantera – Vulgar Display Of Power (7 91758-2).flac” WAVE
TRACK 01 AUDIO
TITLE “Mouth For War”
PERFORMER “Pantera”
ISRC USEE10170086
INDEX 00 00:00:00
INDEX 01 00:00:32
TRACK 02 AUDIO
TITLE “A New Level”
PERFORMER “Pantera”
ISRC USEE10170087
INDEX 01 03:56:70
TRACK 03 AUDIO
TITLE “Walk”
PERFORMER “Pantera”
ISRC USEE10170088
INDEX 01 07:54:30
TRACK 04 AUDIO
TITLE “Fucking Hostile”
PERFORMER “Pantera”
ISRC USEE10170089
INDEX 01 13:09:17
TRACK 05 AUDIO
TITLE “This Love”
PERFORMER “Pantera”
ISRC USEE10170090
INDEX 01 15:57:62
TRACK 06 AUDIO
TITLE “Rise”
PERFORMER “Pantera”
ISRC USEE10170091
INDEX 01 22:30:37
TRACK 07 AUDIO
TITLE “No Good (Attack The Radical)”
PERFORMER “Pantera”
ISRC USEE10170092
INDEX 01 27:07:05
TRACK 08 AUDIO
TITLE “Live In A Hole”
PERFORMER “Pantera”
ISRC USEE10170093
INDEX 01 31:56:62
TRACK 09 AUDIO
TITLE “Regular People (Conceit)”
PERFORMER “Pantera”
ISRC USEE10170094
INDEX 00 36:56:45
INDEX 01 36:57:15
TRACK 10 AUDIO
TITLE “By Demons Be Driven”
PERFORMER “Pantera”
ISRC USEE10170095
INDEX 01 42:24:55
TRACK 11 AUDIO
TITLE “Hollow”
PERFORMER “Pantera”
ISRC USEE10170096
INDEX 00 47:04:15
INDEX 01 47:05:05


Leave a Reply

Your email address will not be published. Required fields are marked *

This site uses Akismet to reduce spam. Learn how your comment data is processed.