Pantera – Vulgar Display Of Power (Remastered Japanese Edition)




[Total: 0    Average: 0/5]

Artist: Pantera
Year: 1992/2012
Genre: Metal
Notes: Discogs
Add. Notes: Remastered Japanese Edition
Cover incl.: Yes
Encoder: FLAC
Bitrate: ~1100 kBit/s (44.1 kHz/16 Bit/s)
Log & Cue incl.: Yes
Size: 626,2 MB
Password: “slam” (without ” “)


All Downloads/Hosters are compatible

Download 1
Share-online.biz
KatFile.com
Rapidgator.net
Download 2
Share-online.biz
KatFile.com
Rapidgator.net

Tracklist:

1. Mouth For War 
2. A New Level
3. Walk 
4. Fucking Hostile 
5. This Love 
6. Rise 
7. No Good (Attack The Radical) 
8. Live In A Hole 
9. Regular People (Conceit) 
10. By Demons Be Driven 
11. Hollow 
Bonus Track
12. Piss

EAC-Log, CUE-Sheed & NFO:

Click to open spoiler
Exact Audio Copy V0.99 prebeta 5 from 4. May 2009

EAC extraction logfile from 29. September 2012, 10:36

Pantera / Vulgar Display Of Power (Anniversary Edition)

Used drive : Optiarc BD RW BD-5740H Adapter: 0 ID: 2

Read mode : Secure
Utilize accurate stream : Yes
Defeat audio cache : Yes
Make use of C2 pointers : No

Read offset correction : 48
Overread into Lead-In and Lead-Out : No
Fill up missing offset samples with silence : Yes
Delete leading and trailing silent blocks : No
Null samples used in CRC calculations : Yes
Used interface : Native Win32 interface for Win NT & 2000

Used output format : User Defined Encoder
Selected bitrate : 1024 kBit/s
Quality : High
Add ID3 tag : No
Command line compressor : C:\Program Files (x86)\FLAC\flac.exe
Additional command line options : -T “DATE=%y” -T “GENRE=%m” -8 -V %s

TOC of the extracted CD

Track | Start | Length | Start sector | End sector
———————————————————
1 | 0:00.00 | 3:56.72 | 0 | 17771
2 | 3:56.72 | 3:57.41 | 17772 | 35587
3 | 7:54.38 | 5:14.74 | 35588 | 59211
4 | 13:09.37 | 2:48.29 | 59212 | 71840
5 | 15:57.66 | 6:32.59 | 71841 | 101299
6 | 22:30.50 | 4:36.56 | 101300 | 122055
7 | 27:07.31 | 4:48.06 | 122056 | 143661
8 | 31:55.37 | 5:01.58 | 143662 | 166294
9 | 36:57.20 | 5:27.32 | 166295 | 190851
10 | 42:24.52 | 4:40.33 | 190852 | 211884
11 | 47:05.10 | 5:49.49 | 211885 | 238108
12 | 52:54.59 | 5:07.23 | 238109 | 261156

Range status and errors

Selected range

Filename D:\Ripped By liveevil\Pantera – Vulgar Display Of Power (Anniversary Edition).wav

Peak level 100.0 %
Range quality 100.0 %
Test CRC BE4222F1
Copy CRC BE4222F1
Copy OK

No errors occurred

AccurateRip summary

Track 1 not present in database
Track 2 not present in database
Track 3 not present in database
Track 4 not present in database
Track 5 not present in database
Track 6 not present in database
Track 7 not present in database
Track 8 not present in database
Track 9 not present in database
Track 10 not present in database
Track 11 not present in database
Track 12 not present in database

None of the tracks are present in the AccurateRip database

End of status report

REM GENRE Groove / Thrash Metal
REM DATE 1992/2012
REM DISCID BA0D9A0C
REM COMMENT “ExactAudioCopy v0.99pb5”
PERFORMER “Pantera”
TITLE “Vulgar Display Of Power (WPZR-30439~40)”
FILE “Pantera – Vulgar Display Of Power (WPZR-30439~40).flac” WAVE
TRACK 01 AUDIO
TITLE “Mouth For War”
PERFORMER “Pantera”
INDEX 01 00:00:00
TRACK 02 AUDIO
TITLE “A New Level”
PERFORMER “Pantera”
INDEX 01 03:56:72
TRACK 03 AUDIO
TITLE “Walk”
PERFORMER “Pantera”
INDEX 01 07:54:38
TRACK 04 AUDIO
TITLE “Fucking Hostile”
PERFORMER “Pantera”
INDEX 01 13:09:37
TRACK 05 AUDIO
TITLE “This Love”
PERFORMER “Pantera”
INDEX 01 15:57:66
TRACK 06 AUDIO
TITLE “Rise”
PERFORMER “Pantera”
INDEX 01 22:30:50
TRACK 07 AUDIO
TITLE “No Good (Attack The Radical)”
PERFORMER “Pantera”
INDEX 01 27:07:31
TRACK 08 AUDIO
TITLE “Live In A Hole”
PERFORMER “Pantera”
INDEX 01 31:55:37
TRACK 09 AUDIO
TITLE “Regular People (Conceit)”
PERFORMER “Pantera”
INDEX 01 36:57:20
TRACK 10 AUDIO
TITLE “By Demons Be Driven”
PERFORMER “Pantera”
INDEX 01 42:24:52
TRACK 11 AUDIO
TITLE “Hollow”
PERFORMER “Pantera”
INDEX 01 47:05:10
TRACK 12 AUDIO
TITLE “Piss (Bonus track)”
PERFORMER “Pantera”
INDEX 01 52:54:59


Spread the Download

Leave a Reply

Your email address will not be published. Required fields are marked *

Enter the text from the image below
 

This site uses Akismet to reduce spam. Learn how your comment data is processed.