Pantera – Vulgar Display Of Power (Japanese Edition)




[Total: 0    Average: 0/5]

Artist: Pantera
Year: 1992
Genre: Metal
Notes: Discogs
Add. Notes: Japanese Edition
Cover incl.: Yes
Encoder: FLAC
Bitrate: ~900 kBit/s (44.1 kHz/16 Bit/s)
Log & Cue incl.: Yes
Size: 481,91 MB
Password: “slam” (without ” “)


All Downloads/Hosters are compatible

Download 1
Share-online.biz
Rapidgator.net
KatFile.com
UploadRar.com
Download 2
Share-online.biz
Rapidgator.net
KatFile.com
UploadRar.com

Tracklist:

1 - Mouth For War - 3:56
2 - A New Level - 2:57
3 - Walk - 5:15
4 - Fucking Hostile - 2:49
5 - This Love - 6:32
6 - Rise - 4:36
7 - No Good (Attack The Radical) - 4:50
8 - Live In A Hole - 4:59
9 - Regular People (Conceit) - 5:27
10 - By Demons Be Driven - 4:39
11 - Hollow - 5:45

EAC-Log, CUE-Sheed & NFO:

Click to open spoiler
Exact Audio Copy V1.1 from 23. June 2015

EAC extraction logfile from 12. January 2016, 22:04

Pantera / Vulgar Display Of Power (Japan, AMCY-378)

Used drive : PIONEER DVD-RW DVR-219L Adapter: 1 ID: 1

Read mode : Secure
Utilize accurate stream : Yes
Defeat audio cache : Yes
Make use of C2 pointers : No

Read offset correction : 6
Overread into Lead-In and Lead-Out : No
Fill up missing offset samples with silence : Yes
Delete leading and trailing silent blocks : No
Null samples used in CRC calculations : Yes
Used interface : Native Win32 interface for Win NT & 2000

Used output format : Internal WAV Routines
Sample format : 44.100 Hz; 16 Bit; Stereo

TOC of the extracted CD

Track | Start | Length | Start sector | End sector
———————————————————
1 | 0:00.00 | 3:57.10 | 0 | 17784
2 | 3:57.10 | 3:57.42 | 17785 | 35601
3 | 7:54.52 | 5:14.60 | 35602 | 59211
4 | 13:09.37 | 2:48.48 | 59212 | 71859
5 | 15:58.10 | 6:32.45 | 71860 | 101304
6 | 22:30.55 | 4:36.32 | 101305 | 122036
7 | 27:07.12 | 4:50.05 | 122037 | 143791
8 | 31:57.17 | 5:00.10 | 143792 | 166301
9 | 36:57.27 | 5:27.43 | 166302 | 190869
10 | 42:24.70 | 4:40.27 | 190870 | 211896
11 | 47:05.22 | 5:46.25 | 211897 | 237871

Range status and errors

Selected range

Filename D:\CDRip for Johnny\Pantera – Vulgar Display Of Power (Japan, AMCY-378).wav

Peak level 97.2 %
Extraction speed 6.9 X
Range quality 99.9 %
Test CRC E43F5FBD
Copy CRC E43F5FBD
Copy OK

No errors occurred

AccurateRip summary

Track 1 accurately ripped (confidence 13) [4E952F8C] (AR v2)
Track 2 accurately ripped (confidence 13) [FB9B8B92] (AR v2)
Track 3 accurately ripped (confidence 13) [2415979A] (AR v2)
Track 4 accurately ripped (confidence 13) [E6C443AA] (AR v2)
Track 5 accurately ripped (confidence 13) [8A30678A] (AR v2)
Track 6 accurately ripped (confidence 13) [18E6B2CA] (AR v2)
Track 7 accurately ripped (confidence 13) [7BFA934B] (AR v2)
Track 8 accurately ripped (confidence 13) [932CB226] (AR v2)
Track 9 accurately ripped (confidence 13) [558954B8] (AR v2)
Track 10 accurately ripped (confidence 13) [32E8DCF9] (AR v2)
Track 11 accurately ripped (confidence 13) [D665E93E] (AR v2)

All tracks accurately ripped

End of status report

—- CUETools DB Plugin V2.1.6

[CTDB TOCID: PLsKLgTTzAawzufrTw7OiV3WcoQ-] found
Submit result: PLsKLgTTzAawzufrTw7OiV3WcoQ- has been confirmed
Track | CTDB Status
1 | (37/37) Accurately ripped
2 | (37/37) Accurately ripped
3 | (35/37) Accurately ripped
4 | (37/37) Accurately ripped
5 | (37/37) Accurately ripped
6 | (37/37) Accurately ripped
7 | (37/37) Accurately ripped
8 | (36/37) Accurately ripped
9 | (37/37) Accurately ripped
10 | (37/37) Accurately ripped
11 | (37/37) Accurately ripped

==== Log checksum 0A0D719FA5AD79080E7063D158EBF5514FFCBA90F080011A5EB5351A82AB7DD9 ====

REM GENRE Groove / Thrash Metal
REM DATE 1992
REM DISCID A40C630B
REM COMMENT “ExactAudioCopy v1.1”
PERFORMER “Pantera”
TITLE “Vulgar Display Of Power (AMCY-378)”
FILE “Pantera – Vulgar Display Of Power (AMCY-378).flac” WAVE
TRACK 01 AUDIO
TITLE “Mouth For War”
PERFORMER “Pantera”
INDEX 01 00:00:00
TRACK 02 AUDIO
TITLE “A New Level”
PERFORMER “Pantera”
INDEX 01 03:57:10
TRACK 03 AUDIO
TITLE “Walk”
PERFORMER “Pantera”
INDEX 01 07:54:52
TRACK 04 AUDIO
TITLE “Fucking Hostile”
PERFORMER “Pantera”
INDEX 01 13:09:37
TRACK 05 AUDIO
TITLE “This Love”
PERFORMER “Pantera”
INDEX 01 15:58:10
TRACK 06 AUDIO
TITLE “Rise”
PERFORMER “Pantera”
INDEX 01 22:30:55
TRACK 07 AUDIO
TITLE “No Good (Attack The Radical)”
PERFORMER “Pantera”
INDEX 01 27:07:12
TRACK 08 AUDIO
TITLE “Living In A Hole”
PERFORMER “Pantera”
INDEX 01 31:57:17
TRACK 09 AUDIO
TITLE “Regular People (Conceit)”
PERFORMER “Pantera”
INDEX 01 36:57:27
TRACK 10 AUDIO
TITLE “By Demons Be Driven”
PERFORMER “Pantera”
INDEX 01 42:24:70
TRACK 11 AUDIO
TITLE “Hollow”
PERFORMER “Pantera”
INDEX 01 47:05:22


Spread the Download

Leave a Reply

Your email address will not be published. Required fields are marked *

Enter the text from the image below
 

This site uses Akismet to reduce spam. Learn how your comment data is processed.