Pantera – Vulgar Display Of Power (Reissue)




Artist: Pantera
Year: 1992/1994
Genre: Metal
Notes: Discogs
Add. Notes: Reissue
Cover incl.: Yes
Encoder: FLAC
Bitrate: ~1000 kBit/s (44.1 kHz/16 Bit/s)
Log & Cue incl.: Yes
Size: 397 MB
Password: “slam” (without ” “)


All Downloads/Hosters are compatible

Download 1
KatFile.com
Turbobit.net
Rapidgator.net
Usersdrive.com
Download 2
KatFile.com
Turbobit.net
Rapidgator.net
Usersdrive.com

Tracklist:

1 - Mouth For War - 3:56
2 - A New Level - 2:57
3 - Walk - 5:15
4 - Fucking Hostile - 2:49
5 - This Love - 6:32
6 - Rise - 4:36
7 - No Good (Attack The Radical) - 4:50
8 - Live In A Hole - 4:59
9 - Regular People (Conceit) - 5:27
10 - By Demons Be Driven - 4:39
11 - Hollow - 5:45

EAC-Log, CUE-Sheed & NFO:

Click to open spoiler
Exact Audio Copy V1.1 from 23. June 2015

EAC extraction logfile from 2. February 2017, 22:20

Pantera / Vulgar Display of Power

Used drive : ASUS DRW-1612BL Adapter: 2 ID: 0

Read mode : Secure
Utilize accurate stream : Yes
Defeat audio cache : Yes
Make use of C2 pointers : No

Read offset correction : 6
Overread into Lead-In and Lead-Out : No
Fill up missing offset samples with silence : Yes
Delete leading and trailing silent blocks : No
Null samples used in CRC calculations : Yes
Used interface : Installed external ASPI interface

Used output format : User Defined Encoder
Selected bitrate : 128 kBit/s
Quality : High
Add ID3 tag : No
Command line compressor : C:\Program Files\EAC\Exact Audio Copy\Flac\flac.exe
Additional command line options : -V -8 -T “Date=%year%” -T “Genre=%genre%” %source%

TOC of the extracted CD

Track | Start | Length | Start sector | End sector
———————————————————
1 | 0:00.00 | 3:57.17 | 0 | 17791
2 | 3:57.17 | 3:57.35 | 17792 | 35601
3 | 7:54.52 | 5:14.68 | 35602 | 59219
4 | 13:09.45 | 2:48.40 | 59220 | 71859
5 | 15:58.10 | 6:32.45 | 71860 | 101304
6 | 22:30.55 | 4:36.15 | 101305 | 122019
7 | 27:06.70 | 4:49.67 | 122020 | 143761
8 | 31:56.62 | 5:00.25 | 143762 | 166286
9 | 36:57.12 | 5:27.28 | 166287 | 190839
10 | 42:24.40 | 4:40.37 | 190840 | 211876
11 | 47:05.02 | 5:48.43 | 211877 | 238019

Range status and errors

Selected range

Filename C:\darkbrides\Pantera – Vulgar Display of Power.wav

Peak level 97.2 %
Extraction speed 7.7 X
Range quality 99.9 %
Test CRC 46DFAA6C
Copy CRC 46DFAA6C
Copy OK

No errors occurred

AccurateRip summary

Track 1 accurately ripped (confidence 129) [32AD1F38] (AR v2)
Track 2 accurately ripped (confidence 131) [F3AD12A3] (AR v2)
Track 3 accurately ripped (confidence 132) [2FAA0670] (AR v2)
Track 4 accurately ripped (confidence 132) [FEDFC813] (AR v2)
Track 5 accurately ripped (confidence 131) [F358B476] (AR v2)
Track 6 accurately ripped (confidence 131) [7170C470] (AR v2)
Track 7 accurately ripped (confidence 130) [F759EA9F] (AR v2)
Track 8 accurately ripped (confidence 130) [6E8C8B9D] (AR v2)
Track 9 accurately ripped (confidence 131) [522A8B6C] (AR v2)
Track 10 accurately ripped (confidence 129) [ECA99E0C] (AR v2)
Track 11 accurately ripped (confidence 129) [0F5BA811] (AR v2)

All tracks accurately ripped

End of status report

—- CUETools DB Plugin V2.1.6

[CTDB TOCID: cOElVssFbC1UoeFI52sVl6NxWZA-] found
Submit result: already submitted
Track | CTDB Status
1 | (778/794) Accurately ripped, or (5/794) differs in 180 samples @02:25:25
2 | (789/794) Accurately ripped
3 | (787/794) Accurately ripped
4 | (789/794) Accurately ripped
5 | (783/794) Accurately ripped
6 | (785/794) Accurately ripped
7 | (777/794) Accurately ripped, or (5/794) differs in 284 samples @00:01:44-00:01:45
8 | (779/794) Accurately ripped, or (5/794) differs in 180 samples @02:59:17
9 | (783/794) Accurately ripped
10 | (777/794) Accurately ripped, or (5/794) differs in 180 samples @01:18:47
11 | (771/794) Accurately ripped, or (5/794) differs in 180 samples @05:00:44

==== Log checksum FCD82EA1FBFE875118ADF289F26F1CE6226C5010D986BF557415F8FAD4FD5758 ====

REM GENRE Groove / Thrash Metal
REM DATE 1992/1994
REM DISCID A20C650B
REM COMMENT “ExactAudioCopy v1.1”
CATALOG 7567917580207
PERFORMER “Pantera”
TITLE “Vulgar Display Of Power (7567-91758-2)”
FILE “Pantera – Vulgar Display Of Power (7567-91758-2).flac” WAVE
TRACK 01 AUDIO
TITLE “Mouth For War”
PERFORMER “Pantera”
INDEX 01 00:00:00
TRACK 02 AUDIO
TITLE “A New Level”
PERFORMER “Pantera”
INDEX 01 03:57:17
TRACK 03 AUDIO
TITLE “Walk”
PERFORMER “Pantera”
INDEX 01 07:54:52
TRACK 04 AUDIO
TITLE “Fucking Hostile”
PERFORMER “Pantera”
INDEX 01 13:09:45
TRACK 05 AUDIO
TITLE “This Love”
PERFORMER “Pantera”
INDEX 01 15:58:10
TRACK 06 AUDIO
TITLE “Rise”
PERFORMER “Pantera”
INDEX 01 22:30:55
TRACK 07 AUDIO
TITLE “No Good (Attack The Radical)”
PERFORMER “Pantera”
INDEX 01 27:06:70
TRACK 08 AUDIO
TITLE “Live In A Hole”
PERFORMER “Pantera”
INDEX 01 31:56:62
TRACK 09 AUDIO
TITLE “Regular People (Conceit)”
PERFORMER “Pantera”
INDEX 01 36:57:12
TRACK 10 AUDIO
TITLE “By Demons Be Driven”
PERFORMER “Pantera”
INDEX 01 42:24:40
TRACK 11 AUDIO
TITLE “Hollow”
PERFORMER “Pantera”
INDEX 00 47:04:12
INDEX 01 47:05:02


Leave a Reply

Your email address will not be published. Required fields are marked *

This site uses Akismet to reduce spam. Learn how your comment data is processed.