Pantera – The Great Southern Trendkill




Artist: Pantera
Year: 1996
Genre: Metal
Notes: Discogs
Add. Notes:
Cover incl.: Yes
Encoder: FLAC
Bitrate: ~1000 kBit/s (44.1 kHz/16 Bit/s)
Log & Cue incl.: Yes
Size: 419 MB
Password: “slam” (without ” “)


All Downloads/Hosters are compatible

Download 1
Turbobit.net
Rapidgator.net
KatFile.com
UploadRar.com
Download 2
Turbobit.net
Rapidgator.net
KatFile.com
UploadRar.com

Tracklist:

1 - The Great Southern Trendkill - 3:47
2 - War Nerve - 4:53
3 - Drag The Waters - 4:55
4 - 10's - 4:49
5 - 13 Steps To Nowhere - 3:37
6 - Suicide Note Pt. I - 4:44
7 - Suicide Note Pt. II - 4:19
8 - Living Through Me (Hell's Wrath) - 4:50
9 - Floods - 6:59
10 - The Underground In America - 4:33
11 - (Reprise) Sandblasted Skin - 5:39

EAC-Log, CUE-Sheed & NFO:

Click to open spoiler
Exact Audio Copy V1.1 from 23. June 2015

EAC extraction logfile from 12. January 2016, 19:54

Pantera / The Great Southern Trendkill

Used drive : Optiarc DVD-ROM DDU1675S Adapter: 1 ID: 0

Read mode : Secure
Utilize accurate stream : Yes
Defeat audio cache : Yes
Make use of C2 pointers : No

Read offset correction : 6
Overread into Lead-In and Lead-Out : No
Fill up missing offset samples with silence : Yes
Delete leading and trailing silent blocks : No
Null samples used in CRC calculations : Yes
Used interface : Native Win32 interface for Win NT & 2000

Used output format : User Defined Encoder
Selected bitrate : 1024 kBit/s
Quality : High
Add ID3 tag : No
Command line compressor : C:\Program Files (x86)\Exact Audio Copy\Flac\flac.exe
Additional command line options : -V -8 -T “Date=%year%” -T “Genre=%genre%” %source%

TOC of the extracted CD

Track | Start | Length | Start sector | End sector
———————————————————
1 | 0:00.00 | 3:47.00 | 0 | 17024
2 | 3:47.00 | 4:53.27 | 17025 | 39026
3 | 8:40.27 | 4:55.58 | 39027 | 61209
4 | 13:36.10 | 4:49.67 | 61210 | 82951
5 | 18:26.02 | 3:37.38 | 82952 | 99264
6 | 22:03.40 | 4:44.47 | 99265 | 120611
7 | 26:48.12 | 4:19.38 | 120612 | 140074
8 | 31:07.50 | 4:50.35 | 140075 | 161859
9 | 35:58.10 | 6:59.67 | 161860 | 193351
10 | 42:58.02 | 4:33.60 | 193352 | 213886
11 | 47:31.62 | 5:39.40 | 213887 | 239351

Range status and errors

Selected range

Filename E:\Torrent\Pantera – The Great Southern Trendkill (1996) (EastWest, 7559-61908-2, Germany)\Pantera – The Great Southern Trendkill.wav

Peak level 100.0 %
Extraction speed 2.5 X
Range quality 99.9 %
Test CRC A293FB98
Copy CRC A293FB98
Copy OK

No errors occurred

AccurateRip summary

Track 1 accurately ripped (confidence 107) [F6AB3E22] (AR v2)
Track 2 accurately ripped (confidence 104) [3E36B008] (AR v2)
Track 3 accurately ripped (confidence 104) [EB222C89] (AR v2)
Track 4 accurately ripped (confidence 104) [D3C4204A] (AR v2)
Track 5 accurately ripped (confidence 104) [D6BB6657] (AR v2)
Track 6 accurately ripped (confidence 104) [247DFF94] (AR v2)
Track 7 accurately ripped (confidence 104) [49A833C4] (AR v2)
Track 8 accurately ripped (confidence 105) [6E1082CC] (AR v2)
Track 9 accurately ripped (confidence 104) [28F0C94F] (AR v2)
Track 10 accurately ripped (confidence 102) [602DA5F5] (AR v2)
Track 11 accurately ripped (confidence 103) [5305E8B7] (AR v2)

All tracks accurately ripped

End of status report

—- CUETools DB Plugin V2.1.6

[CTDB TOCID: 3LcrIgsYGoGyHTIJDHoaHcrkqSQ-] found
Submit result: 3LcrIgsYGoGyHTIJDHoaHcrkqSQ- has been confirmed
Track | CTDB Status
1 | (250/252) Accurately ripped
2 | (252/252) Accurately ripped
3 | (250/252) Accurately ripped
4 | (250/252) Accurately ripped
5 | (249/252) Accurately ripped
6 | (250/252) Accurately ripped
7 | (249/252) Accurately ripped
8 | (252/252) Accurately ripped
9 | (250/252) Accurately ripped
10 | (252/252) Accurately ripped
11 | (248/252) Accurately ripped

==== Log checksum DCEAA2CD208852E2C26DB210B266C8FB93458C4BF8981F02655720EA517EFCC7 ====

REM GENRE Groove / Thrash Metal
REM DATE 1996
REM DISCID 880C770B
REM COMMENT “ExactAudioCopy v1.1”
CATALOG 7559619080208
PERFORMER “Pantera”
TITLE “The Great Southern Trendkill (7559-61908-2)”
FILE “Pantera – The Great Southern Trendkill (7559-61908-2).flac” WAVE
TRACK 01 AUDIO
TITLE “The Great Southern Trendkill”
PERFORMER “Pantera”
INDEX 01 00:00:00
TRACK 02 AUDIO
TITLE “War Nerve”
PERFORMER “Pantera”
INDEX 01 03:47:00
TRACK 03 AUDIO
TITLE “Drag The Waters”
PERFORMER “Pantera”
INDEX 01 08:40:27
TRACK 04 AUDIO
TITLE “10’s”
PERFORMER “Pantera”
INDEX 01 13:36:10
TRACK 05 AUDIO
TITLE “13 Steps To Nowhere”
PERFORMER “Pantera”
INDEX 01 18:26:02
TRACK 06 AUDIO
TITLE “Suicide Note Pt. I”
PERFORMER “Pantera”
INDEX 01 22:03:40
TRACK 07 AUDIO
TITLE “Suicide Note Pt. II”
PERFORMER “Pantera”
INDEX 01 26:48:12
TRACK 08 AUDIO
TITLE “Living Through Me (Hells’ Wrath)”
PERFORMER “Pantera”
INDEX 01 31:07:50
TRACK 09 AUDIO
TITLE “Floods”
PERFORMER “Pantera”
INDEX 01 35:58:10
TRACK 10 AUDIO
TITLE “The Underground In America”
PERFORMER “Pantera”
INDEX 01 42:58:02
TRACK 11 AUDIO
TITLE “(Reprise) Sandblasted Skin”
PERFORMER “Pantera”
INDEX 01 47:31:62


Leave a Reply

Your email address will not be published. Required fields are marked *

This site uses Akismet to reduce spam. Learn how your comment data is processed.