Pantera – The Great Southern Trendkill (Japanese Edition)




[Total: 0    Average: 0/5]

Artist: Pantera
Year: 1996
Genre: Metal
Notes: Discogs
Add. Notes: Japanese Edition
Cover incl.: Yes
Encoder: FLAC
Bitrate: ~1100 kBit/s (44.1 kHz/16 Bit/s)
Log & Cue incl.: Yes
Size: 558,1 MB
Password: “slam” (without ” “)


All Downloads/Hosters are compatible

Download 1
Share-online.biz
NitroFlare.com
KatFile.com
Rapidgator.net
Download 2
Share-online.biz
NitroFlare.com
KatFile.com
Rapidgator.net

Tracklist:

1 - The Great Southern Trendkill - 3:47
2 - War Nerve - 4:53
3 - Drag The Waters - 4:55
4 - 10s - 4:49
5 - 13 Steps To Nowhere - 3:37
6 - Suicide Note Pt. I - 4:44
7 - Suicide Note Pt. II - 4:19
8 - Living Through Me (Hells Wrath) - 4:50
9 - Floods - 6:59
10 - The Underground In America - 4:33
11 - (Reprise) Sandblasted Skin - 5:40
Japan Only Bonus Track
12 - Walk (Live Version) - 5:29

EAC-Log, CUE-Sheed & NFO:

Click to open spoiler
Exact Audio Copy V1.1 from 23. June 2015

EAC extraction logfile from 13. January 2016, 14:54

Pantera / The Great Southern Trendkill (Japan, AMCY-940)

Used drive : PIONEER DVD-RW DVR-219L Adapter: 1 ID: 1

Read mode : Secure
Utilize accurate stream : Yes
Defeat audio cache : Yes
Make use of C2 pointers : No

Read offset correction : 6
Overread into Lead-In and Lead-Out : No
Fill up missing offset samples with silence : Yes
Delete leading and trailing silent blocks : No
Null samples used in CRC calculations : Yes
Used interface : Native Win32 interface for Win NT & 2000

Used output format : Internal WAV Routines
Sample format : 44.100 Hz; 16 Bit; Stereo

TOC of the extracted CD

Track | Start | Length | Start sector | End sector
———————————————————
1 | 0:00.00 | 3:47.28 | 0 | 17052
2 | 3:47.28 | 4:53.27 | 17053 | 39054
3 | 8:40.55 | 4:55.58 | 39055 | 61237
4 | 13:36.38 | 4:49.67 | 61238 | 82979
5 | 18:26.30 | 3:37.38 | 82980 | 99292
6 | 22:03.68 | 4:44.47 | 99293 | 120639
7 | 26:48.40 | 4:19.38 | 120640 | 140102
8 | 31:08.03 | 4:50.35 | 140103 | 161887
9 | 35:58.38 | 6:59.67 | 161888 | 193379
10 | 42:58.30 | 4:33.60 | 193380 | 213914
11 | 47:32.15 | 5:40.73 | 213915 | 239487
12 | 53:13.13 | 5:29.40 | 239488 | 264202

Range status and errors

Selected range

Filename D:\CDRip for Johnny\Pantera – The Great Southern Trendkill (Japan, AMCY-940).wav

Peak level 100.0 %
Extraction speed 7.4 X
Range quality 100.0 %
Test CRC 16510A25
Copy CRC 16510A25
Copy OK

No errors occurred

AccurateRip summary

Track 1 accurately ripped (confidence 6) [CFD5B7C6] (AR v2)
Track 2 accurately ripped (confidence 6) [C70B5493] (AR v2)
Track 3 accurately ripped (confidence 6) [CED30B76] (AR v2)
Track 4 accurately ripped (confidence 6) [55D1E50C] (AR v2)
Track 5 accurately ripped (confidence 6) [619AF8B2] (AR v2)
Track 6 accurately ripped (confidence 6) [06967AF5] (AR v2)
Track 7 accurately ripped (confidence 6) [43E652A2] (AR v2)
Track 8 accurately ripped (confidence 6) [95AD394F] (AR v2)
Track 9 accurately ripped (confidence 6) [A5F66867] (AR v2)
Track 10 accurately ripped (confidence 5) [B231AEE3] (AR v2)
Track 11 accurately ripped (confidence 6) [5B90768C] (AR v2)
Track 12 accurately ripped (confidence 6) [657F3341] (AR v2)

All tracks accurately ripped

End of status report

—- CUETools DB Plugin V2.1.6

[CTDB TOCID: fnfb5yIGQHl1o.j0Bo7Hd5cIeuA-] found
Submit result: fnfb5yIGQHl1o.j0Bo7Hd5cIeuA- has been confirmed
Track | CTDB Status
1 | (15/15) Accurately ripped
2 | (15/15) Accurately ripped
3 | (15/15) Accurately ripped
4 | (14/15) Accurately ripped
5 | (15/15) Accurately ripped
6 | (15/15) Accurately ripped
7 | (15/15) Accurately ripped
8 | (15/15) Accurately ripped
9 | (15/15) Accurately ripped
10 | (15/15) Accurately ripped
11 | (15/15) Accurately ripped
12 | (15/15) Accurately ripped

==== Log checksum 1D1C7BCF6392215A4D3F99F72DBC55D9B6961DAA77C48ED620848714D08A99BA ====

REM GENRE Groove / Thrash Metal
REM DATE 1996
REM DISCID 930DC20C
REM COMMENT “ExactAudioCopy v1.1”
CATALOG 4988029094049
PERFORMER “Pantera”
TITLE “The Great Southern Trendkill (AMCY-940)”
FILE “Pantera – The Great Southern Trendkill (AMCY-940).flac” WAVE
TRACK 01 AUDIO
TITLE “The Great Southern Trendkill”
PERFORMER “Pantera”
INDEX 01 00:00:00
TRACK 02 AUDIO
TITLE “War Nerve”
PERFORMER “Pantera”
INDEX 01 03:47:28
TRACK 03 AUDIO
TITLE “Drag The Waters”
PERFORMER “Pantera”
INDEX 01 08:40:55
TRACK 04 AUDIO
TITLE “10’s”
PERFORMER “Pantera”
INDEX 01 13:36:38
TRACK 05 AUDIO
TITLE “13 Steps To Nowhere”
PERFORMER “Pantera”
INDEX 01 18:26:30
TRACK 06 AUDIO
TITLE “Suicide Note Pt. I”
PERFORMER “Pantera”
INDEX 01 22:03:68
TRACK 07 AUDIO
TITLE “Suicide Note Pt. II”
PERFORMER “Pantera”
INDEX 01 26:48:40
TRACK 08 AUDIO
TITLE “Living Through Me (Hells’ Wrath)”
PERFORMER “Pantera”
INDEX 01 31:08:03
TRACK 09 AUDIO
TITLE “Floods”
PERFORMER “Pantera”
INDEX 01 35:58:38
TRACK 10 AUDIO
TITLE “The Underground In America”
PERFORMER “Pantera”
INDEX 01 42:58:30
TRACK 11 AUDIO
TITLE “(Reprise) Sandblasted Skin”
PERFORMER “Pantera”
INDEX 01 47:32:15
TRACK 12 AUDIO
TITLE “Walk (Live) (Bonus track)”
PERFORMER “Pantera”
INDEX 00 53:11:43
INDEX 01 53:13:13


Spread the Download

Leave a Reply

Your email address will not be published. Required fields are marked *

Enter the text from the image below
 

This site uses Akismet to reduce spam. Learn how your comment data is processed.