Pantera – The Great Southern Trendkill (20th Anniversary Deluxe Edition)




[Total: 0    Average: 0/5]

Artist: Pantera
Year: 1996/2016
Genre: Metal
Notes: Discogs
Add. Notes: 20th Anniversary Deluxe Edition
Cover incl.: Yes
Encoder: FLAC
Bitrate: ~1000 kBit/s (44.1 kHz/16 Bit/s)
Log & Cue incl.: Yes
Size: 824,74 MB
Password: “slam” (without ” “)


All Downloads/Hosters are compatible

Download 1
Share-online.biz
KatFile.com
Rapidgator.net
NitroFlare.com
Download 2
Share-online.biz
KatFile.com
Rapidgator.net
NitroFlare.com

Tracklist:

The Great Southern Trendkill - 20th Anniversary Edition 
2016 Remasters
1-1 - The Great Southern Trendkill - 3:49
1-2 - War Nerve - 4:48
1-3 - Drag The Waters - 4:55
1-4 - 10's - 4:50
1-5 - 13 Steps To Nowhere - 3:38
1-6 - Suicide Note Pt. I - 4:44
1-7 - Suicide Note Pt. II - 4:19
1-8 - Living Through Me (Hell's Wrath) - 4:50
1-9 - Floods - 6:59
1-10 - The Underground In America - 4:33
1-11 - (Reprise) Sandblasted Skin - 5:36
The Great Southern Outtakes - Previously Unreleased
2-1 - The Great Southern Trendkill (2016 Mix) - 4:07
2-2 - War Nerve (Live '98) - 5:21
2-3 - Drag The Waters (Early Mix) - 5:00
2-4 - 10's (Early Mix) - 4:53
2-5 - 13 Steps To Nowhere (Instrumental Version) - 3:40
2-6 - Suicide Note Pt. I (Intro) - 1:13
2-7 - Suicide Note Pt. I (Early Mix) - 3:53
2-8 - Suicide Note Pt. II (Live '98) - 4:48
2-9 - Living Through Me (Hell's Wrath) (Instrumental 
Version) - 4:54
2-10 - Floods (Early Mix) - 7:19
2-11 - The Underground In America (Early Mix) - 3:56
2-12 - (Reprise) Sandblasted Skin (Live '98) - 4:34

EAC-Log, CUE-Sheed & NFO:

Click to open spoiler
Exact Audio Copy V1.1 from 23. June 2015

EAC extraction logfile from 17. October 2017, 22:21

Pantera / The Great Southern Trendkill (20th Anniversary Edition) [Disc 2]

Used drive : HL-DT-STBD-RE GGW-H20L Adapter: 1 ID: 0

Read mode : Secure
Utilize accurate stream : Yes
Defeat audio cache : Yes
Make use of C2 pointers : No

Read offset correction : 667
Overread into Lead-In and Lead-Out : No
Fill up missing offset samples with silence : Yes
Delete leading and trailing silent blocks : No
Null samples used in CRC calculations : Yes
Used interface : Native Win32 interface for Win NT & 2000

Used output format : User Defined Encoder
Selected bitrate : 1024 kBit/s
Quality : High
Add ID3 tag : No
Command line compressor : C:\Program Files (x86)\Exact Audio Copy\Flac\flac.exe
Additional command line options : -V -8 -T “Date=%year%” -T “Genre=%genre%” %source%

TOC of the extracted CD

Track | Start | Length | Start sector | End sector
———————————————————
1 | 0:00.00 | 4:07.14 | 0 | 18538
2 | 4:07.14 | 5:21.11 | 18539 | 42624
3 | 9:28.25 | 5:00.67 | 42625 | 65191
4 | 14:29.17 | 4:53.60 | 65192 | 87226
5 | 19:23.02 | 3:40.54 | 87227 | 103780
6 | 23:03.56 | 1:13.08 | 103781 | 109263
7 | 24:16.64 | 3:53.35 | 109264 | 126773
8 | 28:10.24 | 4:48.34 | 126774 | 148407
9 | 32:58.58 | 4:54.59 | 148408 | 170516
10 | 37:53.42 | 7:19.00 | 170517 | 203441
11 | 45:12.42 | 3:56.56 | 203442 | 221197
12 | 49:09.23 | 4:34.58 | 221198 | 241805

Range status and errors

Selected range

Filename C:\Desktop\Pantera – The Great Southern Trendkill (20th Anniversary Edition) [Disc 2].wav

Peak level 98.8 %
Extraction speed 6.3 X
Range quality 99.9 %
Test CRC 3D961679
Copy CRC 3D961679
Copy OK

No errors occurred

AccurateRip summary

Track 1 accurately ripped (confidence 13) [335C3EFE] (AR v2)
Track 2 accurately ripped (confidence 13) [B6E8C442] (AR v2)
Track 3 accurately ripped (confidence 13) [BAE18AE0] (AR v2)
Track 4 accurately ripped (confidence 13) [0CB8A748] (AR v2)
Track 5 accurately ripped (confidence 13) [0A2A582F] (AR v2)
Track 6 accurately ripped (confidence 13) [05E00D69] (AR v2)
Track 7 accurately ripped (confidence 13) [B1A97D34] (AR v2)
Track 8 accurately ripped (confidence 13) [20D5F627] (AR v2)
Track 9 accurately ripped (confidence 13) [C2C1F1B7] (AR v2)
Track 10 accurately ripped (confidence 13) [972F8E4A] (AR v2)
Track 11 accurately ripped (confidence 13) [97202436] (AR v2)
Track 12 accurately ripped (confidence 13) [501ABC6B] (AR v2)

All tracks accurately ripped

End of status report

—- CUETools DB Plugin V2.1.6

[CTDB TOCID: hpjshutvvZUwEIw387bDZ4hP.9w-] found
Submit result: already submitted
Track | CTDB Status
1 | (45/45) Accurately ripped
2 | (45/45) Accurately ripped
3 | (45/45) Accurately ripped
4 | (45/45) Accurately ripped
5 | (45/45) Accurately ripped
6 | (45/45) Accurately ripped
7 | (45/45) Accurately ripped
8 | (45/45) Accurately ripped
9 | (45/45) Accurately ripped
10 | (45/45) Accurately ripped
11 | (45/45) Accurately ripped
12 | (45/45) Accurately ripped

==== Log checksum 4600989B6CC9FB2EADE165AFB9E5653F3C1FD7EC9B24AA529A6A05CC443299E4 ====

Exact Audio Copy V1.1 from 23. June 2015

EAC extraction logfile from 17. October 2017, 21:50

Pantera / The Great Southern Trendkill (20th Anniversary Edition)

Used drive : HL-DT-STBD-RE GGW-H20L Adapter: 1 ID: 0

Read mode : Secure
Utilize accurate stream : Yes
Defeat audio cache : Yes
Make use of C2 pointers : No

Read offset correction : 667
Overread into Lead-In and Lead-Out : No
Fill up missing offset samples with silence : Yes
Delete leading and trailing silent blocks : No
Null samples used in CRC calculations : Yes
Used interface : Native Win32 interface for Win NT & 2000

Used output format : User Defined Encoder
Selected bitrate : 1024 kBit/s
Quality : High
Add ID3 tag : No
Command line compressor : C:\Program Files (x86)\Exact Audio Copy\Flac\flac.exe
Additional command line options : -V -8 -T “Date=%year%” -T “Genre=%genre%” %source%

TOC of the extracted CD

Track | Start | Length | Start sector | End sector
———————————————————
1 | 0:00.00 | 3:49.32 | 0 | 17206
2 | 3:49.32 | 4:48.30 | 17207 | 38836
3 | 8:37.62 | 4:55.47 | 38837 | 61008
4 | 13:33.34 | 4:50.09 | 61009 | 82767
5 | 18:23.43 | 3:38.24 | 82768 | 99141
6 | 22:01.67 | 4:44.59 | 99142 | 120500
7 | 26:46.51 | 4:19.31 | 120501 | 139956
8 | 31:06.07 | 4:50.35 | 139957 | 161741
9 | 35:56.42 | 6:59.71 | 161742 | 193237
10 | 42:56.38 | 4:33.62 | 193238 | 213774
11 | 47:30.25 | 5:36.35 | 213775 | 239009

Range status and errors

Selected range

Filename C:\Pantera – The Great Southern Trendkill (20th Anniversary Edition).wav

Peak level 100.0 %
Extraction speed 7.4 X
Range quality 100.0 %
Test CRC 939047B3
Copy CRC 939047B3
Copy OK

No errors occurred

AccurateRip summary

Track 1 accurately ripped (confidence 12) [F563345E] (AR v2)
Track 2 accurately ripped (confidence 12) [BDF2A56D] (AR v2)
Track 3 accurately ripped (confidence 12) [737FBD41] (AR v2)
Track 4 accurately ripped (confidence 12) [176C21AE] (AR v2)
Track 5 accurately ripped (confidence 12) [D8A214CE] (AR v2)
Track 6 accurately ripped (confidence 12) [46C25852] (AR v2)
Track 7 accurately ripped (confidence 12) [26C3B320] (AR v2)
Track 8 accurately ripped (confidence 12) [C2367114] (AR v2)
Track 9 accurately ripped (confidence 12) [8D6E1F7D] (AR v2)
Track 10 accurately ripped (confidence 12) [AC49E507] (AR v2)
Track 11 accurately ripped (confidence 12) [44BD4538] (AR v2)

All tracks accurately ripped

End of status report

—- CUETools DB Plugin V2.1.6

[CTDB TOCID: PgNLS197sYiGGzlZss9Hsygl_ls-] found
Submit result: already submitted
Track | CTDB Status
1 | (52/52) Accurately ripped
2 | (52/52) Accurately ripped
3 | (52/52) Accurately ripped
4 | (52/52) Accurately ripped
5 | (52/52) Accurately ripped
6 | (52/52) Accurately ripped
7 | (52/52) Accurately ripped
8 | (52/52) Accurately ripped
9 | (52/52) Accurately ripped
10 | (52/52) Accurately ripped
11 | (52/52) Accurately ripped

==== Log checksum 6BFAE23B1489DD882469067D172B8B38D03E4F20394433B40EE119F1650E76E9 ====

REM GENRE Groove / Thrash Metal
REM DATE 1996/2016
REM DISCID B00C980C
REM COMMENT “ExactAudioCopy v1.1”
PERFORMER “Pantera”
TITLE “The Great Southern Outtakes (081227946784)”
FILE “Pantera – The Great Southern Outtakes (081227946784).flac” WAVE
TRACK 01 AUDIO
TITLE “The Great Southern Trendkill (2016 mix)”
PERFORMER “Pantera”
INDEX 01 00:00:00
TRACK 02 AUDIO
TITLE “War Nerve (Live ’98)”
PERFORMER “Pantera”
INDEX 01 04:07:14
TRACK 03 AUDIO
TITLE “Drag The Waters (Early mix)”
PERFORMER “Pantera”
INDEX 01 09:28:25
TRACK 04 AUDIO
TITLE “10’s (Early mix)”
PERFORMER “Pantera”
INDEX 01 14:29:17
TRACK 05 AUDIO
TITLE “13 Steps To Nowhere (Instrumental version)”
PERFORMER “Pantera”
INDEX 01 19:23:02
TRACK 06 AUDIO
TITLE “Suicide Note Pt. I (Intro)”
PERFORMER “Pantera”
INDEX 01 23:03:56
TRACK 07 AUDIO
TITLE “Suicide Note Pt. I (Early mix)”
PERFORMER “Pantera”
INDEX 01 24:16:64
TRACK 08 AUDIO
TITLE “Suicide Note Pt. II (Live ’98)”
PERFORMER “Pantera”
INDEX 01 28:10:24
TRACK 09 AUDIO
TITLE “Living Through Me (Hells’ Wrath) (Instrumental version)”
PERFORMER “Pantera”
INDEX 01 32:58:58
TRACK 10 AUDIO
TITLE “Floods (Early mix)”
PERFORMER “Pantera”
INDEX 01 37:53:42
TRACK 11 AUDIO
TITLE “The Underground In America (Early mix)”
PERFORMER “Pantera”
INDEX 01 45:12:42
TRACK 12 AUDIO
TITLE “(Reprise) Sandblasted Skin (Live ’98)”
PERFORMER “Pantera”
INDEX 01 49:09:23

REM GENRE Groove / Thrash Metal
REM DATE 1996/2016
REM DISCID 920C720B
REM COMMENT “ExactAudioCopy v1.1”
PERFORMER “Pantera”
TITLE “The Great Southern Trendkill (081227946784)”
FILE “Pantera – The Great Southern Trendkill (081227946784).flac” WAVE
TRACK 01 AUDIO
TITLE “The Great Southern Trendkill”
PERFORMER “Pantera”
INDEX 01 00:00:00
TRACK 02 AUDIO
TITLE “War Nerve”
PERFORMER “Pantera”
INDEX 01 03:49:32
TRACK 03 AUDIO
TITLE “Drag The Waters”
PERFORMER “Pantera”
INDEX 01 08:37:62
TRACK 04 AUDIO
TITLE “10’s”
PERFORMER “Pantera”
INDEX 01 13:33:34
TRACK 05 AUDIO
TITLE “13 Steps To Nowhere”
PERFORMER “Pantera”
INDEX 01 18:23:43
TRACK 06 AUDIO
TITLE “Suicide Note Pt. I”
PERFORMER “Pantera”
INDEX 01 22:01:67
TRACK 07 AUDIO
TITLE “Suicide Note Pt. II”
PERFORMER “Pantera”
INDEX 01 26:46:51
TRACK 08 AUDIO
TITLE “Living Through Me (Hells’ Wrath)”
PERFORMER “Pantera”
INDEX 01 31:06:07
TRACK 09 AUDIO
TITLE “Floods”
PERFORMER “Pantera”
INDEX 01 35:56:42
TRACK 10 AUDIO
TITLE “The Underground In America”
PERFORMER “Pantera”
INDEX 01 42:56:38
TRACK 11 AUDIO
TITLE “(Reprise) Sandblasted Skin”
PERFORMER “Pantera”
INDEX 01 47:30:25


Spread the Download

Leave a Reply

Your email address will not be published. Required fields are marked *

Enter the text from the image below
 

This site uses Akismet to reduce spam. Learn how your comment data is processed.