Pantera – The Great Southern Trendkill (US Edition)




Artist: Pantera
Year: 1996
Genre: Metal
Notes: Discogs
Add. Notes: US Edition
Cover incl.: Yes
Encoder: FLAC
Bitrate: ~1000 kBit/s (44.1 kHz/16 Bit/s)
Log & Cue incl.: Yes
Size: 469,68 MB
Password: “slam” (without ” “)


All Downloads/Hosters are compatible

Download 1
Turbobit.net
KatFile.com
Rapidgator.net
Usersdrive.com
Download 2
Turbobit.net
KatFile.com
Rapidgator.net
Usersdrive.com

Tracklist:

1 - The Great Southern Trendkill - 3:47
2 - War Nerve - 4:53
3 - Drag The Waters - 4:55
4 - 10's - 4:49
5 - 13 Steps To Nowhere - 3:37
6 - Suicide Note Pt. I - 4:44
7 - Suicide Note Pt. II - 4:19
8 - Living Through Me (Hell's Wrath) - 4:50
9 - Floods - 6:59
10 - The Underground In America - 4:33
11 - (Reprise) Sandblasted Skin - 5:39

EAC-Log, CUE-Sheed & NFO:

Click to open spoiler
Exact Audio Copy V0.99 prebeta 4 from 23. January 2008

Отчёт EAC об извлечении, выполненном 11. июня 2010, 13:24

Pantera / The Great Southern Trendkill

Дисковод: _NEC DVD_RW ND-3550A Adapter: 1 ID: 2

Режим чтения : Достоверность
Использование точного потока : Да
Отключение кэша аудио : Да
Использование указателей C2 : Нет

Коррекция смещения при чтении : 48
Способность читать области Lead-in и Lead-out : Нет
Заполнение пропущенных сэмплов тишиной : Да
Удаление блоков с тишиной в начале и конце : Нет
При вычислениях CRC использовались нулевые сэмплы : Да
Интерфейс : Установленный внешний ASPI-интерфейс

Выходной формат : Внутренние WAV-операции
Формат сэмплов : 44.100 Гц; 16 бит; стерео

TOC извлечённого CD

Трек | Старт | Длительность | Начальный сектор | Конечный сектор
———————————————————————
1 | 0:00.32 | 3:46.73 | 32 | 17054
2 | 3:47.30 | 4:53.27 | 17055 | 39056
3 | 8:40.57 | 4:55.58 | 39057 | 61239
4 | 13:36.40 | 4:49.67 | 61240 | 82981
5 | 18:26.32 | 3:37.38 | 82982 | 99294
6 | 22:03.70 | 4:44.47 | 99295 | 120641
7 | 26:48.42 | 4:19.38 | 120642 | 140104
8 | 31:08.05 | 4:50.35 | 140105 | 161889
9 | 35:58.40 | 6:59.67 | 161890 | 193381
10 | 42:58.32 | 4:33.60 | 193382 | 213916
11 | 47:32.17 | 5:39.38 | 213917 | 239379

Характеристики диапазона извлечения и сообщения об ошибках

Выбранный диапазон

Имя файла C:\Documents and Settings\Бодом\Рабочий стол\Новая папка\Pantera – The Great Southern Trendkill.wav

Пиковый уровень 100.0 %
Качество диапазона 99.9 %
CRC теста 856473AB
CRC копии 856473AB
Копирование… OK

Ошибок не произошло

AccurateRip: сводка

Трек 1 точное извлечение (доверие 136) [869C47E3]
Трек 2 точное извлечение (доверие 132) [55E062DC]
Трек 3 точное извлечение (доверие 135) [FED53258]
Трек 4 точное извлечение (доверие 136) [4338A446]
Трек 5 точное извлечение (доверие 133) [55250F26]
Трек 6 точное извлечение (доверие 133) [F85288A4]
Трек 7 точное извлечение (доверие 133) [66B408F1]
Трек 8 точное извлечение (доверие 134) [92A2285E]
Трек 9 точное извлечение (доверие 132) [9AD4CB1E]
Трек 10 точное извлечение (доверие 129) [CB12C37F]
Трек 11 точное извлечение (доверие 123) [0C5BB361]

Все треки извлечены точно

Конец отчёта

REM GENRE Groove / Thrash Metal
REM DATE 1996
REM DISCID 810C770B
REM COMMENT “ExactAudioCopy v0.99pb4”
PERFORMER “Pantera”
TITLE “The Great Southern Trendkill (61908-2)”
FILE “Pantera – The Great Southern Trendkill (61908-2).flac” WAVE
TRACK 01 AUDIO
TITLE “The Great Southern Trendkill”
PERFORMER “Pantera”
INDEX 00 00:00:00
INDEX 01 00:00:32
TRACK 02 AUDIO
TITLE “War Nerve”
PERFORMER “Pantera”
INDEX 00 03:47:27
INDEX 01 03:47:30
TRACK 03 AUDIO
TITLE “Drag The Waters”
PERFORMER “Pantera”
INDEX 00 08:40:55
INDEX 01 08:40:57
TRACK 04 AUDIO
TITLE “10’s”
PERFORMER “Pantera”
INDEX 00 13:36:37
INDEX 01 13:36:40
TRACK 05 AUDIO
TITLE “13 Steps To Nowhere”
PERFORMER “Pantera”
INDEX 00 18:26:30
INDEX 01 18:26:32
TRACK 06 AUDIO
TITLE “Suicide Note Pt. I”
PERFORMER “Pantera”
INDEX 00 22:03:67
INDEX 01 22:03:70
TRACK 07 AUDIO
TITLE “Suicide Note Pt. II”
PERFORMER “Pantera”
INDEX 00 26:48:40
INDEX 01 26:48:42
TRACK 08 AUDIO
TITLE “Living Through Me (Hells’ Wrath)”
PERFORMER “Pantera”
INDEX 00 31:08:02
INDEX 01 31:08:05
TRACK 09 AUDIO
TITLE “Floods”
PERFORMER “Pantera”
INDEX 00 35:58:37
INDEX 01 35:58:40
TRACK 10 AUDIO
TITLE “The Underground In America”
PERFORMER “Pantera”
INDEX 00 42:58:30
INDEX 01 42:58:32
TRACK 11 AUDIO
TITLE “(Reprise) Sandblasted Skin”
PERFORMER “Pantera”
INDEX 00 47:32:15
INDEX 01 47:32:17


Leave a Reply

Your email address will not be published. Required fields are marked *

This site uses Akismet to reduce spam. Learn how your comment data is processed.