Pantera – The Best Of: Far Beyond The Great Southern Cowboys Vulgar Hits! (Limited Japanese Edition)




[Total: 0    Average: 0/5]

Artist: Pantera
Year: 2003
Genre: Metal
Notes: Discogs
Add. Notes: Limited Japanese Edition
Cover incl.: Yes
Encoder: FLAC
Bitrate: ~1100 kBit/s (44.1 kHz/16 Bit/s)
Log & Cue incl.: Yes
Size: 765,45 MB
Password: “slam” (without ” “)


All Downloads/Hosters are compatible

Download 1
Share-online.biz
KatFile.com
Rapidgator.net
Download 2
Share-online.biz
KatFile.com
Rapidgator.net

Tracklist:

01 - Cowboys From Hell - 4:07
02 - Cemetery Gates - 7:03
03 - Mouth For War - 3:58
04 - Walk - 5:17
05 - This Love - 6:35
06 - I'm Broken - 4:25
07 - Becoming - 3:07
08 - 5 Minutes Alone - 5:52
09 - Planet Caravan - 4:05
10 - Drag The Waters - 4:57
11 - Where You Come From (Live) - 5:14
12 - Cat Scratch Fever - 3:49
13 - Revolution Is My Name - 5:19
14 - I'll Cast A Shadow - 5:19
15 - Goddamn Electric - 4:58
16 - Hole In The Sky - 4:17

EAC-Log, CUE-Sheed & NFO:

Click to open spoiler
Exact Audio Copy V1.1 from 23. June 2015

EAC extraction logfile from 15. January 2016, 22:13

Pantera / The Best Of Pantera (Japan, WPZR 30021~2)

Used drive : PIONEER DVD-RW DVR-219L Adapter: 1 ID: 1

Read mode : Secure
Utilize accurate stream : Yes
Defeat audio cache : Yes
Make use of C2 pointers : No

Read offset correction : 6
Overread into Lead-In and Lead-Out : No
Fill up missing offset samples with silence : Yes
Delete leading and trailing silent blocks : No
Null samples used in CRC calculations : Yes
Used interface : Native Win32 interface for Win NT & 2000

Used output format : Internal WAV Routines
Sample format : 44.100 Hz; 16 Bit; Stereo

TOC of the extracted CD

Track | Start | Length | Start sector | End sector
———————————————————
1 | 0:00.00 | 4:06.51 | 0 | 18500
2 | 4:06.51 | 7:03.01 | 18501 | 50226
3 | 11:09.52 | 3:57.56 | 50227 | 68057
4 | 15:07.33 | 5:16.50 | 68058 | 91807
5 | 20:24.08 | 6:34.54 | 91808 | 121411
6 | 26:58.62 | 4:24.72 | 121412 | 141283
7 | 31:23.59 | 3:07.28 | 141284 | 155336
8 | 34:31.12 | 5:51.54 | 155337 | 181715
9 | 40:22.66 | 4:04.38 | 181716 | 200053
10 | 44:27.29 | 4:57.32 | 200054 | 222360
11 | 49:24.61 | 5:13.67 | 222361 | 245902
12 | 54:38.53 | 3:49.23 | 245903 | 263100
13 | 58:28.01 | 5:19.13 | 263101 | 287038
14 | 63:47.14 | 5:19.19 | 287039 | 310982
15 | 69:06.33 | 4:57.48 | 310983 | 333305
16 | 74:04.06 | 4:16.44 | 333306 | 352549

Range status and errors

Selected range

Filename D:\CDRip for Johnny\Pantera – The Best Of Pantera (Japan, WPZR 30021~2).wav

Peak level 100.0 %
Extraction speed 8.3 X
Range quality 100.0 %
Test CRC FE49A5F3
Copy CRC FE49A5F3
Copy OK

No errors occurred

AccurateRip summary

Track 1 accurately ripped (confidence 6) [7A98D8B9] (AR v2)
Track 2 accurately ripped (confidence 6) [F4F8D83B] (AR v2)
Track 3 accurately ripped (confidence 6) [506B147F] (AR v2)
Track 4 accurately ripped (confidence 6) [A793BAB0] (AR v2)
Track 5 accurately ripped (confidence 6) [D908336C] (AR v2)
Track 6 accurately ripped (confidence 6) [64B2BA53] (AR v2)
Track 7 accurately ripped (confidence 5) [5746D437] (AR v2)
Track 8 accurately ripped (confidence 6) [61838A1D] (AR v2)
Track 9 accurately ripped (confidence 6) [9EF12F22] (AR v2)
Track 10 accurately ripped (confidence 6) [20CC710F] (AR v2)
Track 11 accurately ripped (confidence 6) [A2468A28] (AR v2)
Track 12 accurately ripped (confidence 6) [7920B7A5] (AR v2)
Track 13 accurately ripped (confidence 6) [48522852] (AR v2)
Track 14 accurately ripped (confidence 6) [6AEB57D3] (AR v2)
Track 15 accurately ripped (confidence 6) [97A248C2] (AR v2)
Track 16 accurately ripped (confidence 6) [4E91720A] (AR v2)

All tracks accurately ripped

End of status report

—- CUETools DB Plugin V2.1.6

[CTDB TOCID: 4WPbqboAUCxN2CioNkIujJ.OqPY-] found
Submit result: already submitted
Track | CTDB Status
1 | (15/90) Accurately ripped
2 | (14/90) Accurately ripped
3 | (15/90) Accurately ripped
4 | (15/90) Accurately ripped
5 | (15/90) Accurately ripped
6 | (15/90) Accurately ripped
7 | (15/90) Accurately ripped
8 | (14/90) Accurately ripped
9 | (15/90) Accurately ripped
10 | (14/90) Accurately ripped
11 | (15/90) Accurately ripped
12 | (15/90) Accurately ripped
13 | (15/90) Accurately ripped
14 | (14/90) Accurately ripped
15 | (15/90) Accurately ripped
16 | (15/90) Accurately ripped

==== Log checksum 6C6A8D4F463449BD67EDEAF064D0A01C1757C62706E7005D8C4DB1F0B58E901A ====

REM GENRE Groove / Thrash Metal
REM DATE 2003
REM DISCID EF125C10
REM COMMENT “ExactAudioCopy v1.1”
CATALOG 0081227393229
PERFORMER “Pantera”
TITLE “The Best Of Pantera: Far Beyond The Great Southern Cowboys’ Vulgar Hits! (WPZR 30021~2)”
FILE “Pantera – The Best Of Pantera (WPZR 30021~2).flac” WAVE
TRACK 01 AUDIO
TITLE “Cowboys From Hell”
PERFORMER “Pantera”
ISRC USEE10301249
INDEX 01 00:00:00
TRACK 02 AUDIO
TITLE “Cemetery Gates”
PERFORMER “Pantera”
ISRC USEE10301250
INDEX 01 04:06:51
TRACK 03 AUDIO
TITLE “Mouth For War”
PERFORMER “Pantera”
ISRC USEE10301251
INDEX 01 11:09:52
TRACK 04 AUDIO
TITLE “Walk”
PERFORMER “Pantera”
ISRC USEE10301252
INDEX 00 15:06:31
INDEX 01 15:07:33
TRACK 05 AUDIO
TITLE “This Love”
PERFORMER “Pantera”
ISRC USEE10301253
INDEX 00 20:22:57
INDEX 01 20:24:08
TRACK 06 AUDIO
TITLE “I’m Broken”
PERFORMER “Pantera”
ISRC USEE10301254
INDEX 00 26:57:17
INDEX 01 26:58:62
TRACK 07 AUDIO
TITLE “Becoming”
PERFORMER “Pantera”
ISRC USEE10301256
INDEX 01 31:23:59
TRACK 08 AUDIO
TITLE “5 Minutes Alone”
PERFORMER “Pantera”
ISRC USEE10301257
INDEX 01 34:31:12
TRACK 09 AUDIO
TITLE “Planet Caravan”
PERFORMER “Pantera”
ISRC USEE10301255
INDEX 01 40:22:66
TRACK 10 AUDIO
TITLE “Drag The Waters”
PERFORMER “Pantera”
ISRC USEE10301258
INDEX 01 44:27:29
TRACK 11 AUDIO
TITLE “Where You Come From”
PERFORMER “Pantera”
ISRC USEE10301259
INDEX 01 49:24:61
TRACK 12 AUDIO
TITLE “Cat Scratch Fever”
PERFORMER “Pantera”
ISRC USEE10301265
INDEX 00 54:37:42
INDEX 01 54:38:53
TRACK 13 AUDIO
TITLE “Revolution Is My Name”
PERFORMER “Pantera”
ISRC USEE10301260
INDEX 01 58:28:01
TRACK 14 AUDIO
TITLE “I’ll Cast A Shadow”
PERFORMER “Pantera”
ISRC USEE10301261
INDEX 01 63:47:14
TRACK 15 AUDIO
TITLE “Goddamn Electric”
PERFORMER “Pantera”
ISRC USEE10301264
INDEX 01 69:06:33
TRACK 16 AUDIO
TITLE “Hole In The Sky”
PERFORMER “Pantera”
ISRC USEE10301266
INDEX 01 74:04:06


Spread the Download

Leave a Reply

Your email address will not be published. Required fields are marked *

Enter the text from the image below
 

This site uses Akismet to reduce spam. Learn how your comment data is processed.