Pantera – Reinventing The Steel




Artist: Pantera
Year: 2000
Genre: Metal
Notes: Discogs
Add. Notes:
Cover incl.: Yes
Encoder: FLAC
Bitrate: ~1100 kBit/s (44.1 kHz/16 Bit/s)
Log & Cue incl.: Yes
Size: 373,09 MB
Password: “slam” (without ” “)


All Downloads/Hosters are compatible

Download 1
Turbobit.net
NitroFlare.com
KatFile.com
Rapidgator.net
Download 2
Turbobit.net
NitroFlare.com
KatFile.com
Rapidgator.net

Tracklist:

1 - Hellbound - 2:41
2 - Goddamn Electric - 4:56
3 - Yesterday Don't Mean Sh** - 4:19
4 - You've Got To Belong To It - 4:13
5 - Revolution Is My Name - 5:15
6 - Death Rattle - 3:17
7 - We'll Grind That Axe For A Long Time - 3:44
8 - Uplift - 3:45
9 - It Makes Them Disappear - 6:21
10 - I'll Cast A Shadow - 5:22

EAC-Log, CUE-Sheed & NFO:

Click to open spoiler
Exact Audio Copy V1.1 from 23. June 2015

EAC extraction logfile from 6. March 2017, 16:29

Pantera / Reinventing The Steel

Used drive : HL-DT-STBD-RE GGW-H20L Adapter: 1 ID: 0

Read mode : Secure
Utilize accurate stream : Yes
Defeat audio cache : Yes
Make use of C2 pointers : No

Read offset correction : 667
Overread into Lead-In and Lead-Out : No
Fill up missing offset samples with silence : Yes
Delete leading and trailing silent blocks : No
Null samples used in CRC calculations : Yes
Used interface : Native Win32 interface for Win NT & 2000

Used output format : User Defined Encoder
Selected bitrate : 128 kBit/s
Quality : High
Add ID3 tag : No
Command line compressor : C:\Program Files (x86)\Exact Audio Copy\Flac\flac.exe
Additional command line options : -V -8 -T “Date=%year%” -T “Genre=%genre%” %source%

TOC of the extracted CD

Track | Start | Length | Start sector | End sector
———————————————————
1 | 0:00.00 | 2:41.40 | 0 | 12114
2 | 2:41.40 | 4:56.60 | 12115 | 34374
3 | 7:38.25 | 4:19.55 | 34375 | 53854
4 | 11:58.05 | 4:13.20 | 53855 | 72849
5 | 16:11.25 | 5:15.47 | 72850 | 96521
6 | 21:26.72 | 3:17.45 | 96522 | 111341
7 | 24:44.42 | 3:44.53 | 111342 | 128194
8 | 28:29.20 | 3:45.62 | 128195 | 145131
9 | 32:15.07 | 6:21.70 | 145132 | 173776
10 | 38:37.02 | 5:22.23 | 173777 | 197949

Range status and errors

Selected range

Filename C:\Pantera – Reinventing The Steel\Pantera – Reinventing The Steel.wav

Peak level 100.0 %
Extraction speed 7.1 X
Range quality 100.0 %
Test CRC AA14679D
Copy CRC AA14679D
Copy OK

No errors occurred

AccurateRip summary

Track 1 accurately ripped (confidence 93) [EBEC739E] (AR v2)
Track 2 accurately ripped (confidence 94) [BDA04AC8] (AR v2)
Track 3 accurately ripped (confidence 95) [75F18F75] (AR v2)
Track 4 accurately ripped (confidence 95) [82362AB9] (AR v2)
Track 5 accurately ripped (confidence 95) [BB4B1851] (AR v2)
Track 6 accurately ripped (confidence 95) [B14FDDEF] (AR v2)
Track 7 accurately ripped (confidence 95) [48D78B44] (AR v2)
Track 8 accurately ripped (confidence 95) [A8D7152B] (AR v2)
Track 9 accurately ripped (confidence 94) [4B4C9ACB] (AR v2)
Track 10 accurately ripped (confidence 94) [A099D586] (AR v2)

All tracks accurately ripped

End of status report

—- CUETools DB Plugin V2.1.6

[CTDB TOCID: mUtMx63ZvrEwq3yXk5_5LL15V6Y-] found
Submit result: mUtMx63ZvrEwq3yXk5_5LL15V6Y- has been confirmed
Track | CTDB Status
1 | (242/247) Accurately ripped
2 | (246/247) Accurately ripped
3 | (246/247) Accurately ripped
4 | (246/247) Accurately ripped
5 | (246/247) Accurately ripped
6 | (246/247) Accurately ripped
7 | (246/247) Accurately ripped
8 | (246/247) Accurately ripped
9 | (244/247) Accurately ripped
10 | (240/247) Accurately ripped

==== Log checksum 1A440AF2B876A6997C1D9D2446A4BE3613D5A5063772598E0D13088310981957 ====

REM GENRE Groove / Thrash Metal
REM DATE 2000
REM DISCID 850A4F0A
REM COMMENT “ExactAudioCopy v1.1”
PERFORMER “Pantera”
TITLE “Reinventing The Steel (7559-62451-2)”
FILE “Pantera – Reinventing The Steel (7559-62451-2).flac” WAVE
TRACK 01 AUDIO
TITLE “Hellbound”
PERFORMER “Pantera”
INDEX 01 00:00:00
TRACK 02 AUDIO
TITLE “Goddamn Electric”
PERFORMER “Pantera”
INDEX 01 02:41:40
TRACK 03 AUDIO
TITLE “Yesterday Don’t Mean Shit”
PERFORMER “Pantera”
INDEX 01 07:38:25
TRACK 04 AUDIO
TITLE “You’ve Got To Belong To It”
PERFORMER “Pantera”
INDEX 01 11:58:05
TRACK 05 AUDIO
TITLE “Revolution Is my Name”
PERFORMER “Pantera”
INDEX 01 16:11:25
TRACK 06 AUDIO
TITLE “Death Rattle”
PERFORMER “Pantera”
INDEX 01 21:26:72
TRACK 07 AUDIO
TITLE “We’ll Grind That Axe For A Long Time”
PERFORMER “Pantera”
INDEX 01 24:44:42
TRACK 08 AUDIO
TITLE “Uplift”
PERFORMER “Pantera”
INDEX 01 28:29:20
TRACK 09 AUDIO
TITLE “It Makes Them Disappear”
PERFORMER “Pantera”
INDEX 01 32:15:07
TRACK 10 AUDIO
TITLE “I’ll Cast A Shadow”
PERFORMER “Pantera”
INDEX 01 38:37:02


Leave a Reply

Your email address will not be published. Required fields are marked *

This site uses Akismet to reduce spam. Learn how your comment data is processed.