Pantera – Reinventing The Steel (Japanese Edition)




[Total: 0    Average: 0/5]

Artist: Pantera
Year: 2000
Genre: Metal
Notes: Discogs
Add. Notes: Japanese Edition
Cover incl.: Yes
Encoder: FLAC
Bitrate: ~1100 kBit/s (44.1 kHz/16 Bit/s)
Log & Cue incl.: Yes
Size: 449,24 MB
Password: “slam” (without ” “)


All Downloads/Hosters are compatible

Download 1
Share-online.biz
KatFile.com
Rapidgator.net
NitroFlare.com
Download 2
Share-online.biz
KatFile.com
Rapidgator.net
NitroFlare.com

Tracklist:

1 - Hellbound - 2:40
2 - Goddamn Electric - 4:56
3 - Yesterday Don't Mean Sh** - 4:19
4 - You've Got To Belong To It - 4:13
5 - Revolution Is My Name - 5:15
6 - Death Rattle - 3:17
7 - We'll Grind That Axe For A Long Time - 3:44
8 - Uplift - 3:45
9 - It Makes Them Disappear - 6:21
10 - I'll Cast A Shadow - 5:22

EAC-Log, CUE-Sheed & NFO:

Click to open spoiler
Exact Audio Copy V1.1 from 23. June 2015

EAC extraction logfile from 13. January 2016, 17:26

Pantera / Reinventing The Steel (Japan, AMCY-7131)

Used drive : PIONEER DVD-RW DVR-219L Adapter: 1 ID: 1

Read mode : Secure
Utilize accurate stream : Yes
Defeat audio cache : Yes
Make use of C2 pointers : No

Read offset correction : 6
Overread into Lead-In and Lead-Out : No
Fill up missing offset samples with silence : Yes
Delete leading and trailing silent blocks : No
Null samples used in CRC calculations : Yes
Used interface : Native Win32 interface for Win NT & 2000

Used output format : Internal WAV Routines
Sample format : 44.100 Hz; 16 Bit; Stereo

TOC of the extracted CD

Track | Start | Length | Start sector | End sector
———————————————————
1 | 0:00.00 | 2:40.72 | 0 | 12071
2 | 2:40.72 | 4:56.50 | 12072 | 34321
3 | 7:37.47 | 4:19.60 | 34322 | 53806
4 | 11:57.32 | 4:13.18 | 53807 | 72799
5 | 16:10.50 | 5:15.55 | 72800 | 96479
6 | 21:26.30 | 3:17.40 | 96480 | 111294
7 | 24:43.70 | 3:44.52 | 111295 | 128146
8 | 28:28.47 | 3:45.60 | 128147 | 145081
9 | 32:14.32 | 6:21.73 | 145082 | 173729
10 | 38:36.30 | 5:22.30 | 173730 | 197909

Range status and errors

Selected range

Filename D:\CDRip for Johnny\Pantera – Reinventing The Steel (Japan, AMCY-7131).wav

Peak level 100.0 %
Extraction speed 6.6 X
Range quality 100.0 %
Test CRC C57531B0
Copy CRC C57531B0
Copy OK

No errors occurred

AccurateRip summary

Track 1 accurately ripped (confidence 3) [C438BCDC] (AR v2)
Track 2 accurately ripped (confidence 3) [DB9E5E50] (AR v2)
Track 3 accurately ripped (confidence 3) [C229F197] (AR v2)
Track 4 accurately ripped (confidence 3) [F4E8F349] (AR v2)
Track 5 accurately ripped (confidence 3) [6DC651F9] (AR v2)
Track 6 accurately ripped (confidence 3) [BE2CB7AE] (AR v2)
Track 7 accurately ripped (confidence 3) [1D2410E7] (AR v2)
Track 8 accurately ripped (confidence 3) [C2B03373] (AR v2)
Track 9 accurately ripped (confidence 3) [84562B76] (AR v2)
Track 10 accurately ripped (confidence 3) [18FF8ECD] (AR v2)

All tracks accurately ripped

End of status report

—- CUETools DB Plugin V2.1.6

[CTDB TOCID: qLg.WUG0.kCIeQ5B3nXxWEGpmqs-] found
Submit result: qLg.WUG0.kCIeQ5B3nXxWEGpmqs- has been confirmed
Track | CTDB Status
1 | (13/13) Accurately ripped
2 | (13/13) Accurately ripped
3 | (13/13) Accurately ripped
4 | (13/13) Accurately ripped
5 | (13/13) Accurately ripped
6 | (13/13) Accurately ripped
7 | (13/13) Accurately ripped
8 | (13/13) Accurately ripped
9 | (13/13) Accurately ripped
10 | (11/13) Accurately ripped

==== Log checksum E81D3DD688E7BBE51EC89E5AF8CB6F7F3553D0595980014F2F584879A1109137 ====

REM GENRE Groove / Thrash Metal
REM DATE 2000
REM DISCID 8F0A4E0A
REM COMMENT “ExactAudioCopy v1.1”
CATALOG 4988029709141
PERFORMER “Pantera”
TITLE “Reinventing The Steel (AMCY-7131)”
FILE “Pantera – Reinventing The Steel (AMCY-7131).flac” WAVE
TRACK 01 AUDIO
TITLE “Hellbound”
PERFORMER “Pantera”
ISRC USEW10000166
INDEX 01 00:00:00
TRACK 02 AUDIO
TITLE “Goddamn Electric”
PERFORMER “Pantera”
ISRC USEW10000167
INDEX 01 02:40:72
TRACK 03 AUDIO
TITLE “Yesterday Don’t Mean Shit”
PERFORMER “Pantera”
ISRC USEW10000169
INDEX 01 07:37:47
TRACK 04 AUDIO
TITLE “You’ve Got To Belong To It”
PERFORMER “Pantera”
ISRC USEW10000125
INDEX 01 11:57:32
TRACK 05 AUDIO
TITLE “Revolution Is My Name”
PERFORMER “Pantera”
ISRC USEW10000118
INDEX 01 16:10:50
TRACK 06 AUDIO
TITLE “Death Rattle”
PERFORMER “Pantera”
ISRC USEW10000133
INDEX 01 21:26:30
TRACK 07 AUDIO
TITLE “We’ll Grind That Axe For A Long Time”
PERFORMER “Pantera”
ISRC USEW10000126
INDEX 01 24:43:70
TRACK 08 AUDIO
TITLE “Uplift”
PERFORMER “Pantera”
ISRC USEW10000173
INDEX 01 28:28:47
TRACK 09 AUDIO
TITLE “It Makes Them Disappear”
PERFORMER “Pantera”
ISRC USEW10000175
INDEX 01 32:14:32
TRACK 10 AUDIO
TITLE “I’ll Cast A Shadow”
PERFORMER “Pantera”
ISRC USEW10000176
INDEX 01 38:36:30


Spread the Download

Leave a Reply

Your email address will not be published. Required fields are marked *

Enter the text from the image below
 

This site uses Akismet to reduce spam. Learn how your comment data is processed.