Pantera – Original Album Series




[Total: 0    Average: 0/5]

Artist: Pantera
Year: 2011
Genre: Metal
Notes: Discogs
Add. Notes:
Cover incl.: Yes
Encoder: FLAC
Bitrate: ~1000 kBit/s (44.1 kHz/16 Bit/s)
Log & Cue incl.: Yes
Size: 2051,09 MB
Password: “slam” (without ” “)


All Downloads/Hosters are compatible

Download 1
Share-online.biz
KatFile.com
Rapidgator.net
Download 2
Share-online.biz
KatFile.com
Rapidgator.net

Tracklist:

Cowboys From Hell
1-1 - Cowboys From Hell - 4:06
1-2 - Primal Concrete Sledge - 2:13
1-3 - Psycho Holiday - 5:19
1-4 - Heresy - 4:47
1-5 - Cemetery Gates - 7:03
1-6 - Domination - 5:04
1-7 - Shattered - 3:22
1-8 - Clash With Reality - 5:17
1-9 - Medicine Man - 5:15
1-10 - Message In Blood - 5:10
1-11 - The Sleep - 5:47
1-12 - The Art Of Shredding - 4:18
Vulgar Display Of Power
2-1 - Mouth For War - 3:57
2-2 - A New Level - 3:57
2-3 - Walk - 5:15
2-4 - Fucking Hostile - 2:49
2-5 - This Love - 6:33
2-6 - Rise - 4:37
2-7 - No Good (Attack The Radical) - 4:50
2-8 - Live In A Hole - 5:00
2-9 - Regular People (Conceit) - 5:28
2-10 - By Demons Be Driven - 4:40
2-11 - Hollow - 5:46
Far Beyond Driven
3-1 - Strength Beyond Strength - 3:39
3-2 - Becoming - 3:05
3-3 - 5 Minutes Alone - 5:47
3-4 - I'm Broken - 4:25
3-5 - Good Friends And Bottle Of Pills - 2:53
3-6 - Hard Lines, Sunken Cheeks - 7:01
3-7 - Slaughtered - 3:57
3-8 - 25 Years - 6:06
3-9 - Shedding Skin - 5:37
3-10 - Use My Third Arm - 4:52
3-11 - Throes Of Rejection - 5:02
3-12 - Planet Caravan - 4:03
The Great Southern Trendkill
4-1 - The Great Southern Trendkill - 3:47
4-2 - War Nerve - 4:53
4-3 - Drag The Waters - 4:56
4-4 - 10's - 4:50
4-5 - 13 Steps To Nowhere - 3:37
4-6 - Suicide Note Pt. I - 4:45
4-7 - Suicide Note Pt. II - 4:19
4-8 - Living Through Me (Hells' Wrath) - 4:50
4-9 - Floods - 7:00
4-10 - The Underground In America - 4:34
4-11 - (Reprise) Sandblasted Skin - 5:39
Reinventing The Steel
5-1 - Hellbound - 2:41
5-2 - Goddamn Electric - 4:57
5-3 - Yesterday Don't Mean Shit - 4:20
5-4 - You've Got To Belong To It - 4:13
5-5 - Revolution Is My Name - 5:16
5-6 - Death Rattle - 3:17
5-7 - We'll Grind That Axe For A Long Time - 3:45
5-8 - Uplift - 3:46
5-9 - It Makes Them Disappear - 6:22
5-10 - I'll Cast A Shadow - 5:25

EAC-Log, CUE-Sheed & NFO:

Click to open spoiler
Exact Audio Copy V1.1 from 23. June 2015

EAC extraction logfile from 14. April 2016, 13:28

Pantera / Cowboys From Hell [ATCO, 8122797548, Germany]

Used drive : PIONEER DVD-RW DVR-112D Adapter: 0 ID: 0

Read mode : Secure
Utilize accurate stream : Yes
Defeat audio cache : Yes
Make use of C2 pointers : No

Read offset correction : 48
Overread into Lead-In and Lead-Out : No
Fill up missing offset samples with silence : Yes
Delete leading and trailing silent blocks : No
Null samples used in CRC calculations : Yes
Used interface : Installed external ASPI interface

Used output format : User Defined Encoder
Selected bitrate : 1024 kBit/s
Quality : High
Add ID3 tag : No
Command line compressor : C:\Program Files\Exact Audio Copy\FLAC\FLAC.EXE
Additional command line options : -V -8 -T “Date=%year%” -T “Genre=%genre%” %source%

TOC of the extracted CD

Track | Start | Length | Start sector | End sector
———————————————————
1 | 0:00.32 | 4:06.20 | 32 | 18501
2 | 4:06.52 | 2:13.15 | 18502 | 28491
3 | 6:19.67 | 5:19.10 | 28492 | 52426
4 | 11:39.02 | 4:46.63 | 52427 | 73939
5 | 16:25.65 | 7:02.70 | 73940 | 105659
6 | 23:28.60 | 5:04.20 | 105660 | 128479
7 | 28:33.05 | 3:22.02 | 128480 | 143631
8 | 31:55.07 | 5:16.40 | 143632 | 167371
9 | 37:11.47 | 5:15.05 | 167372 | 191001
10 | 42:26.52 | 5:09.43 | 191002 | 214219
11 | 47:36.20 | 5:47.25 | 214220 | 240269
12 | 53:23.45 | 4:18.07 | 240270 | 259626

Range status and errors

Selected range

Filename C:\PabloDark\Pantera – Cowboys From Hell [ATCO, 8122797548, Germany].wav

Peak level 99.9 %
Extraction speed 7.3 X
Range quality 100.0 %
Test CRC 85A63C45
Copy CRC 85A63C45
Copy OK

No errors occurred

AccurateRip summary

Track 1 accurately ripped (confidence 61) [4E94EF22] (AR v2)
Track 2 accurately ripped (confidence 61) [CCE08763] (AR v2)
Track 3 accurately ripped (confidence 61) [D63C4B69] (AR v2)
Track 4 accurately ripped (confidence 61) [90A1BBC8] (AR v2)
Track 5 accurately ripped (confidence 61) [E80CD6D4] (AR v2)
Track 6 accurately ripped (confidence 61) [A27F1B4F] (AR v2)
Track 7 accurately ripped (confidence 61) [89759CC6] (AR v2)
Track 8 accurately ripped (confidence 61) [A5E151C4] (AR v2)
Track 9 accurately ripped (confidence 61) [9119B164] (AR v2)
Track 10 accurately ripped (confidence 61) [BEFF494D] (AR v2)
Track 11 accurately ripped (confidence 61) [C29C3E69] (AR v2)
Track 12 accurately ripped (confidence 60) [DCB779FA] (AR v2)

All tracks accurately ripped

End of status report

—- CUETools DB Plugin V2.1.6

[CTDB TOCID: R.vN7ZA7uTaOVvFgUN4RCav6Gvw-] found
Submit result: R.vN7ZA7uTaOVvFgUN4RCav6Gvw- has been confirmed
Track | CTDB Status
1 | (166/169) Accurately ripped, or (1/169) differs in 8108 samples @04:05:50-04:05:60
2 | (167/169) Accurately ripped
3 | (166/169) Accurately ripped
4 | (167/169) Accurately ripped
5 | (166/169) Accurately ripped
6 | (127/169) Accurately ripped, or (39/169) differs in 1 samples @00:00:09, or (1/169) differs in 10544 samples @05:03:50-05:03:65
7 | (166/169) Accurately ripped
8 | (165/169) Accurately ripped, or (1/169) differs in 156 samples @04:18:13
9 | (164/169) Accurately ripped, or (1/169) differs in 6 samples @01:25:19
10 | (165/169) Accurately ripped, or (1/169) differs in 773 samples @00:38:04,02:04:21-02:04:22,02:59:49
11 | (162/169) Accurately ripped, or (1/169) differs in 311 samples @02:08:17,02:24:01-02:24:02,02:44:36
12 | (160/169) Accurately ripped, or (1/169) differs in 12 samples @00:12:43

==== Log checksum 0643F43A5F3C082241E085EE52D741081C5493A68F263D74D04C947009823BA7 ====

Exact Audio Copy V1.1 from 23. June 2015

EAC extraction logfile from 14. April 2016, 13:47

Pantera / Far Beyond Driven [ATCO, 8122797548, Germany]

Used drive : PIONEER DVD-RW DVR-112D Adapter: 0 ID: 0

Read mode : Secure
Utilize accurate stream : Yes
Defeat audio cache : Yes
Make use of C2 pointers : No

Read offset correction : 48
Overread into Lead-In and Lead-Out : No
Fill up missing offset samples with silence : Yes
Delete leading and trailing silent blocks : No
Null samples used in CRC calculations : Yes
Used interface : Installed external ASPI interface

Used output format : User Defined Encoder
Selected bitrate : 1024 kBit/s
Quality : High
Add ID3 tag : No
Command line compressor : C:\Program Files\Exact Audio Copy\FLAC\FLAC.EXE
Additional command line options : -V -8 -T “Date=%year%” -T “Genre=%genre%” %source%

TOC of the extracted CD

Track | Start | Length | Start sector | End sector
———————————————————
1 | 0:00.32 | 3:38.48 | 32 | 16429
2 | 3:39.05 | 3:05.07 | 16430 | 30311
3 | 6:44.12 | 5:47.33 | 30312 | 56369
4 | 12:31.45 | 4:24.60 | 56370 | 76229
5 | 16:56.30 | 2:52.70 | 76230 | 89199
6 | 19:49.25 | 7:01.35 | 89200 | 120809
7 | 26:50.60 | 3:57.02 | 120810 | 138586
8 | 30:47.62 | 6:05.40 | 138587 | 166001
9 | 36:53.27 | 5:36.60 | 166002 | 191261
10 | 42:30.12 | 4:51.63 | 191262 | 213149
11 | 47:22.00 | 5:01.45 | 213150 | 235769
12 | 52:23.45 | 4:03.32 | 235770 | 254026

Range status and errors

Selected range

Filename C:\PabloDark\Pantera – Far Beyond Driven [ATCO, 8122797548, Germany].wav

Peak level 99.8 %
Extraction speed 7.1 X
Range quality 99.9 %
Test CRC E79DB3AC
Copy CRC E79DB3AC
Copy OK

No errors occurred

AccurateRip summary

Track 1 accurately ripped (confidence 57) [7FB477CA] (AR v2)
Track 2 accurately ripped (confidence 57) [B74A43F6] (AR v2)
Track 3 accurately ripped (confidence 57) [2E5FD6F5] (AR v2)
Track 4 accurately ripped (confidence 57) [26178B31] (AR v2)
Track 5 accurately ripped (confidence 57) [4298EB7E] (AR v2)
Track 6 accurately ripped (confidence 57) [DE7BF2BA] (AR v2)
Track 7 accurately ripped (confidence 57) [CA4B800C] (AR v2)
Track 8 accurately ripped (confidence 57) [6BE87360] (AR v2)
Track 9 accurately ripped (confidence 57) [E640E668] (AR v2)
Track 10 accurately ripped (confidence 57) [24386E51] (AR v2)
Track 11 accurately ripped (confidence 56) [FD62FE86] (AR v2)
Track 12 accurately ripped (confidence 56) [AA98C92C] (AR v2)

All tracks accurately ripped

End of status report

—- CUETools DB Plugin V2.1.6

[CTDB TOCID: sl6XTSdThk8Gy8QLekhTZyBIXZM-] found
Submit result: sl6XTSdThk8Gy8QLekhTZyBIXZM- has been confirmed
Track | CTDB Status
1 | (184/195) Accurately ripped, or (2/195) differs in 9 samples @00:19:13,00:20:63, or (2/195) differs in 42 samples @00:46:56
2 | (183/195) Accurately ripped, or (7/195) differs in 1 samples @00:21:63
3 | (183/195) Accurately ripped, or (7/195) differs in 1 samples @02:03:42
4 | (188/195) Accurately ripped, or (4/195) differs in 12 samples @01:36:07
5 | (190/195) Accurately ripped
6 | (187/195) Accurately ripped, or (2/195) differs in 18815 samples @02:51:07-02:51:23
7 | (187/195) Accurately ripped
8 | (184/195) Accurately ripped
9 | (183/195) Accurately ripped, or (7/195) differs in 1 samples @00:53:61
10 | (188/195) Accurately ripped
11 | (187/195) Accurately ripped
12 | (188/195) Accurately ripped

==== Log checksum FDD7B333478D3CFD4C5A0E6335A9196BC25CD1949F8C3B907DCB4F8B15FE6536 ====

Exact Audio Copy V1.1 from 23. June 2015

EAC extraction logfile from 14. April 2016, 22:17

Pantera / Reinventing The Steel [ATCO, 8122797548, Germany]

Used drive : PIONEER DVD-RW DVR-112D Adapter: 0 ID: 0

Read mode : Secure
Utilize accurate stream : Yes
Defeat audio cache : Yes
Make use of C2 pointers : No

Read offset correction : 48
Overread into Lead-In and Lead-Out : No
Fill up missing offset samples with silence : Yes
Delete leading and trailing silent blocks : No
Null samples used in CRC calculations : Yes
Used interface : Installed external ASPI interface

Used output format : User Defined Encoder
Selected bitrate : 1024 kBit/s
Quality : High
Add ID3 tag : No
Command line compressor : C:\Program Files\Exact Audio Copy\FLAC\FLAC.EXE
Additional command line options : -V -8 -T “Date=%year%” -T “Genre=%genre%” %source%

TOC of the extracted CD

Track | Start | Length | Start sector | End sector
———————————————————
1 | 0:00.00 | 2:40.68 | 0 | 12067
2 | 2:40.68 | 4:56.44 | 12068 | 34311
3 | 7:37.37 | 4:20.02 | 34312 | 53813
4 | 11:57.39 | 4:12.72 | 53814 | 72785
5 | 16:10.36 | 5:16.04 | 72786 | 96489
6 | 21:26.40 | 3:17.23 | 96490 | 111287
7 | 24:43.63 | 3:44.52 | 111288 | 128139
8 | 28:28.40 | 3:45.48 | 128140 | 145062
9 | 32:14.13 | 6:22.36 | 145063 | 173748
10 | 38:36.49 | 5:24.68 | 173749 | 198116

Range status and errors

Selected range

Filename C:\PabloDark\Pantera – Reinventing The Steel [ATCO, 8122797548, Germany].wav

Peak level 100.0 %
Extraction speed 6.7 X
Range quality 100.0 %
Test CRC 81F5160E
Copy CRC 81F5160E
Copy OK

No errors occurred

AccurateRip summary

Track 1 accurately ripped (confidence 59) [FEEB6402] (AR v2)
Track 2 accurately ripped (confidence 59) [92F99D85] (AR v2)
Track 3 accurately ripped (confidence 59) [E0BC7A4A] (AR v2)
Track 4 accurately ripped (confidence 59) [49CF3DD5] (AR v2)
Track 5 accurately ripped (confidence 59) [EC47CFD2] (AR v2)
Track 6 accurately ripped (confidence 59) [8E2E05A0] (AR v2)
Track 7 accurately ripped (confidence 59) [20CFC3A7] (AR v2)
Track 8 accurately ripped (confidence 59) [70AEF08A] (AR v2)
Track 9 accurately ripped (confidence 59) [D186AFA9] (AR v2)
Track 10 accurately ripped (confidence 59) [72EF27C4] (AR v2)

All tracks accurately ripped

End of status report

—- CUETools DB Plugin V2.1.6

[CTDB TOCID: 3flv0ldRDghH8oizV8MdyMJaRDs-] found
Submit result: already submitted
Track | CTDB Status
1 | (130/131) Accurately ripped
2 | (130/131) Accurately ripped
3 | (130/131) Accurately ripped
4 | (130/131) Accurately ripped
5 | (130/131) Accurately ripped
6 | (130/131) Accurately ripped
7 | (130/131) Accurately ripped
8 | (130/131) Accurately ripped
9 | (130/131) Accurately ripped
10 | (130/131) Accurately ripped

==== Log checksum 0A2D28E27266C54469280B54B9B096D27129C2FA64C61A757DA600CCE3407622 ====

Exact Audio Copy V1.1 from 23. June 2015

EAC extraction logfile from 14. April 2016, 14:06

Pantera / The Great Southern Trendkill [ATCO, 8122797548, Germany]

Used drive : PIONEER DVD-RW DVR-112D Adapter: 0 ID: 0

Read mode : Secure
Utilize accurate stream : Yes
Defeat audio cache : Yes
Make use of C2 pointers : No

Read offset correction : 48
Overread into Lead-In and Lead-Out : No
Fill up missing offset samples with silence : Yes
Delete leading and trailing silent blocks : No
Null samples used in CRC calculations : Yes
Used interface : Installed external ASPI interface

Used output format : User Defined Encoder
Selected bitrate : 1024 kBit/s
Quality : High
Add ID3 tag : No
Command line compressor : C:\Program Files\Exact Audio Copy\FLAC\FLAC.EXE
Additional command line options : -V -8 -T “Date=%year%” -T “Genre=%genre%” %source%

TOC of the extracted CD

Track | Start | Length | Start sector | End sector
———————————————————
1 | 0:00.00 | 3:47.27 | 0 | 17051
2 | 3:47.27 | 4:53.28 | 17052 | 39054
3 | 8:40.55 | 4:55.57 | 39055 | 61236
4 | 13:36.37 | 4:49.68 | 61237 | 82979
5 | 18:26.30 | 3:37.37 | 82980 | 99291
6 | 22:03.67 | 4:44.48 | 99292 | 120639
7 | 26:48.40 | 4:19.37 | 120640 | 140101
8 | 31:08.02 | 4:50.35 | 140102 | 161886
9 | 35:58.37 | 6:59.68 | 161887 | 193379
10 | 42:58.30 | 4:33.60 | 193380 | 213914
11 | 47:32.15 | 5:39.27 | 213915 | 239366

Range status and errors

Selected range

Filename C:\PabloDark\Pantera – The Great Southern Trendkill [ATCO, 8122797548, Germany].wav

Peak level 100.0 %
Extraction speed 6.9 X
Range quality 100.0 %
Test CRC 1021D1CC
Copy CRC 1021D1CC
Copy OK

No errors occurred

AccurateRip summary

Track 1 accurately ripped (confidence 57) [2FEC42D2] (AR v2)
Track 2 accurately ripped (confidence 57) [BA4446BC] (AR v2)
Track 3 accurately ripped (confidence 57) [7B0017D3] (AR v2)
Track 4 accurately ripped (confidence 57) [62777F03] (AR v2)
Track 5 accurately ripped (confidence 57) [D956DD66] (AR v2)
Track 6 accurately ripped (confidence 57) [A158441A] (AR v2)
Track 7 accurately ripped (confidence 57) [EC68351C] (AR v2)
Track 8 accurately ripped (confidence 57) [E86EB088] (AR v2)
Track 9 accurately ripped (confidence 57) [BF7ABFA0] (AR v2)
Track 10 accurately ripped (confidence 57) [33E5B771] (AR v2)
Track 11 accurately ripped (confidence 56) [7C880C4F] (AR v2)

All tracks accurately ripped

End of status report

—- CUETools DB Plugin V2.1.6

[CTDB TOCID: 1G98b7ipJRnrWDdQr.WRjEbsgho-] found
Submit result: 1G98b7ipJRnrWDdQr.WRjEbsgho- has been confirmed
Track | CTDB Status
1 | (107/107) Accurately ripped
2 | (107/107) Accurately ripped
3 | (107/107) Accurately ripped
4 | (107/107) Accurately ripped
5 | (107/107) Accurately ripped
6 | (107/107) Accurately ripped
7 | (107/107) Accurately ripped
8 | (107/107) Accurately ripped
9 | (107/107) Accurately ripped
10 | (106/107) Accurately ripped
11 | (107/107) Accurately ripped

==== Log checksum 7451BE52C4F7A5904BB109645E2769A1BCD5100E647780F6AC8B1A46D73CA853 ====

Exact Audio Copy V1.1 from 23. June 2015

EAC extraction logfile from 14. April 2016, 22:36

Pantera / Vulgar Display Of Power [ATCO, 8122797548, Germany]

Used drive : PIONEER DVD-RW DVR-112D Adapter: 0 ID: 0

Read mode : Secure
Utilize accurate stream : Yes
Defeat audio cache : Yes
Make use of C2 pointers : No

Read offset correction : 48
Overread into Lead-In and Lead-Out : No
Fill up missing offset samples with silence : Yes
Delete leading and trailing silent blocks : No
Null samples used in CRC calculations : Yes
Used interface : Installed external ASPI interface

Used output format : User Defined Encoder
Selected bitrate : 1024 kBit/s
Quality : High
Add ID3 tag : No
Command line compressor : C:\Program Files\Exact Audio Copy\FLAC\FLAC.EXE
Additional command line options : -V -8 -T “Date=%year%” -T “Genre=%genre%” %source%

TOC of the extracted CD

Track | Start | Length | Start sector | End sector
———————————————————
1 | 0:00.32 | 3:56.38 | 32 | 17769
2 | 3:56.70 | 3:57.35 | 17770 | 35579
3 | 7:54.30 | 5:14.62 | 35580 | 59191
4 | 13:09.17 | 2:48.45 | 59192 | 71836
5 | 15:57.62 | 6:32.50 | 71837 | 101286
6 | 22:30.37 | 4:36.43 | 101287 | 122029
7 | 27:07.05 | 4:49.57 | 122030 | 143761
8 | 31:56.62 | 5:00.28 | 143762 | 166289
9 | 36:57.15 | 5:27.40 | 166290 | 190854
10 | 42:24.55 | 4:40.25 | 190855 | 211879
11 | 47:05.05 | 5:45.55 | 211880 | 237809

Range status and errors

Selected range

Filename C:\PabloDark\Pantera – Vulgar Display Of Power [ATCO, 8122797548, Germany].wav

Peak level 97.2 %
Extraction speed 7.0 X
Range quality 100.0 %
Test CRC 3D491FA3
Copy CRC 3D491FA3
Copy OK

No errors occurred

AccurateRip summary

Track 1 accurately ripped (confidence 59) [F0CC1E88] (AR v2)
Track 2 accurately ripped (confidence 59) [26FE227E] (AR v2)
Track 3 accurately ripped (confidence 59) [EF05B23C] (AR v2)
Track 4 accurately ripped (confidence 59) [AE9095C9] (AR v2)
Track 5 accurately ripped (confidence 58) [2E5C733B] (AR v2)
Track 6 accurately ripped (confidence 58) [2025E343] (AR v2)
Track 7 accurately ripped (confidence 58) [F1C018D6] (AR v2)
Track 8 accurately ripped (confidence 58) [90D35C4B] (AR v2)
Track 9 accurately ripped (confidence 58) [1043B84E] (AR v2)
Track 10 accurately ripped (confidence 58) [CFD1ECE7] (AR v2)
Track 11 accurately ripped (confidence 57) [42E8C0D1] (AR v2)

All tracks accurately ripped

End of status report

—- CUETools DB Plugin V2.1.6

[CTDB TOCID: YfJxs9AMwdP2zdBRo6NNjjfj3jM-] found
Submit result: already submitted
Track | CTDB Status
1 | (193/194) Accurately ripped
2 | (191/194) Accurately ripped, or (2/194) differs in 1 samples @00:58:15
3 | (193/194) Accurately ripped
4 | (193/194) Accurately ripped
5 | (193/194) Accurately ripped
6 | (192/194) Accurately ripped
7 | (192/194) Accurately ripped
8 | (193/194) Accurately ripped
9 | (193/194) Accurately ripped
10 | (191/194) Accurately ripped, or (2/194) differs in 1 samples @02:52:52
11 | (191/194) Accurately ripped

==== Log checksum 12025ED398C40ECEB397960B4B93302DE9C7088E33A87C57B2555069DDD48FC5 ====

REM GENRE Groove / Thrash Metal
REM DATE 1990/2011
REM DISCID A00D850C
REM COMMENT “ExactAudioCopy v1.1”
CATALOG 0081227975487
PERFORMER “Pantera”
TITLE “Cowboys From Hell (8122797548)”
FILE “Pantera – Cowboys From Hell (8122797548).flac” WAVE
TRACK 01 AUDIO
TITLE “Cowboys From Hell”
PERFORMER “Pantera”
ISRC USEE10170414
INDEX 00 00:00:00
INDEX 01 00:00:32
TRACK 02 AUDIO
TITLE “Primal Concrete Sledge”
PERFORMER “Pantera”
ISRC USEE10170411
INDEX 00 04:05:72
INDEX 01 04:06:52
TRACK 03 AUDIO
TITLE “Psycho Holiday”
PERFORMER “Pantera”
ISRC USEE10170412
INDEX 01 06:19:67
TRACK 04 AUDIO
TITLE “Heresy”
PERFORMER “Pantera”
ISRC USEE10170413
INDEX 01 11:39:02
TRACK 05 AUDIO
TITLE “Cemetery Gates”
PERFORMER “Pantera”
ISRC USEE10170410
INDEX 00 16:25:60
INDEX 01 16:25:65
TRACK 06 AUDIO
TITLE “Domination”
PERFORMER “Pantera”
ISRC USEE10170415
INDEX 01 23:28:60
TRACK 07 AUDIO
TITLE “Shattered”
PERFORMER “Pantera”
ISRC USEE10170416
INDEX 00 28:32:30
INDEX 01 28:33:05
TRACK 08 AUDIO
TITLE “Clash With Reality”
PERFORMER “Pantera”
ISRC USEE10170417
INDEX 01 31:55:07
TRACK 09 AUDIO
TITLE “Medicine Man”
PERFORMER “Pantera”
ISRC USEE10170418
INDEX 01 37:11:47
TRACK 10 AUDIO
TITLE “Message In Blood”
PERFORMER “Pantera”
ISRC USEE10170419
INDEX 01 42:26:52
TRACK 11 AUDIO
TITLE “The Sleep”
PERFORMER “Pantera”
ISRC USEE10170420
INDEX 01 47:36:20
TRACK 12 AUDIO
TITLE “The Art Of Shredding”
PERFORMER “Pantera”
ISRC USEE10170421
INDEX 00 53:23:33
INDEX 01 53:23:45

REM GENRE Groove / Thrash Metal
REM DATE 1992/2011
REM DISCID AA0C620B
REM COMMENT “ExactAudioCopy v1.1”
CATALOG 0081227975487
PERFORMER “Pantera”
TITLE “Vulgar Display Of Power (8122797548)”
FILE “Pantera – Vulgar Display Of Power (8122797548).flac” WAVE
TRACK 01 AUDIO
TITLE “Mouth For War”
PERFORMER “Pantera”
ISRC USEE10170086
INDEX 00 00:00:00
INDEX 01 00:00:32
TRACK 02 AUDIO
TITLE “A New Level”
PERFORMER “Pantera”
ISRC USEE10170087
INDEX 01 03:56:70
TRACK 03 AUDIO
TITLE “Walk”
PERFORMER “Pantera”
ISRC USEE10170088
INDEX 01 07:54:30
TRACK 04 AUDIO
TITLE “Fucking Hostile”
PERFORMER “Pantera”
ISRC USEE10170089
INDEX 01 13:09:17
TRACK 05 AUDIO
TITLE “This Love”
PERFORMER “Pantera”
ISRC USEE10170090
INDEX 01 15:57:62
TRACK 06 AUDIO
TITLE “Rise”
PERFORMER “Pantera”
ISRC USEE10170091
INDEX 01 22:30:37
TRACK 07 AUDIO
TITLE “No Good (Attack The Radical)”
PERFORMER “Pantera”
ISRC USEE10170092
INDEX 01 27:07:05
TRACK 08 AUDIO
TITLE “Live In A Hole”
PERFORMER “Pantera”
ISRC USEE10170093
INDEX 01 31:56:62
TRACK 09 AUDIO
TITLE “Regular People (Conceit)”
PERFORMER “Pantera”
ISRC USEE10170094
INDEX 00 36:56:45
INDEX 01 36:57:15
TRACK 10 AUDIO
TITLE “By Demons Be Driven”
PERFORMER “Pantera”
ISRC USEE10170095
INDEX 01 42:24:55
TRACK 11 AUDIO
TITLE “Hollow”
PERFORMER “Pantera”
ISRC USEE10170096
INDEX 00 47:04:15
INDEX 01 47:05:05

REM GENRE Groove / Thrash Metal
REM DATE 1996/2011
REM DISCID 810C770B
REM COMMENT “ExactAudioCopy v1.1”
CATALOG 0081227975487
PERFORMER “Pantera”
TITLE “The Great Southern Trendkill (8122797548)”
FILE “Pantera – The Great Southern Trendkill (8122797548).flac” WAVE
TRACK 01 AUDIO
TITLE “The Great Southern Trendkill”
PERFORMER “Pantera”
ISRC USEW29600001
INDEX 01 00:00:00
TRACK 02 AUDIO
TITLE “War Nerve”
PERFORMER “Pantera”
ISRC USEW29600002
INDEX 01 03:47:27
TRACK 03 AUDIO
TITLE “Drag The Waters”
PERFORMER “Pantera”
ISRC USEW29600003
INDEX 01 08:40:55
TRACK 04 AUDIO
TITLE “10’s”
PERFORMER “Pantera”
ISRC USEW29600004
INDEX 01 13:36:37
TRACK 05 AUDIO
TITLE “13 Steps To Nowhere”
PERFORMER “Pantera”
ISRC USEW29600005
INDEX 01 18:26:30
TRACK 06 AUDIO
TITLE “Suicide Note Part I”
PERFORMER “Pantera”
ISRC USEW29600006
INDEX 01 22:03:67
TRACK 07 AUDIO
TITLE “Suicide Note Part II”
PERFORMER “Pantera”
ISRC USEW29600007
INDEX 01 26:48:40
TRACK 08 AUDIO
TITLE “Living Through Me (Hells’ Wrath)”
PERFORMER “Pantera”
ISRC USEW29600008
INDEX 01 31:08:02
TRACK 09 AUDIO
TITLE “Floods”
PERFORMER “Pantera”
ISRC USEW29600009
INDEX 01 35:58:37
TRACK 10 AUDIO
TITLE “The Underground In America”
PERFORMER “Pantera”
ISRC USEW29600010
INDEX 01 42:58:30
TRACK 11 AUDIO
TITLE “(Reprise) Sandblasted Skin”
PERFORMER “Pantera”
ISRC USEW29600011
INDEX 01 47:32:15

REM GENRE Groove / Thrash Metal
REM DATE 2000/2011
REM DISCID 8F0A510A
REM COMMENT “ExactAudioCopy v1.1”
CATALOG 0081227975487
PERFORMER “Pantera”
TITLE “Reinventing The Steel (8122797548)”
FILE “Pantera – Reinventing The Steel (8122797548).flac” WAVE
TRACK 01 AUDIO
TITLE “Hellbound”
PERFORMER “Pantera”
ISRC USEW10000166
INDEX 01 00:00:00
TRACK 02 AUDIO
TITLE “Goddamn Electric”
PERFORMER “Pantera”
ISRC USEW10000167
INDEX 01 02:40:68
TRACK 03 AUDIO
TITLE “Yesterday Don’t Mean Shit”
PERFORMER “Pantera”
ISRC USEW10000169
INDEX 01 07:37:37
TRACK 04 AUDIO
TITLE “You’ve Got To Belong To It”
PERFORMER “Pantera”
ISRC USEW10000125
INDEX 01 11:57:39
TRACK 05 AUDIO
TITLE “Revolution Is My Name”
PERFORMER “Pantera”
ISRC USEW10000118
INDEX 01 16:10:36
TRACK 06 AUDIO
TITLE “Death Rattle”
PERFORMER “Pantera”
ISRC USEW10000133
INDEX 01 21:26:40
TRACK 07 AUDIO
TITLE “We’ll Grind That Axe For A Long Time”
PERFORMER “Pantera”
ISRC USEW10000126
INDEX 01 24:43:63
TRACK 08 AUDIO
TITLE “Uplift”
PERFORMER “Pantera”
ISRC USEW10000173
INDEX 01 28:28:40
TRACK 09 AUDIO
TITLE “It Makes Them Disappear”
PERFORMER “Pantera”
ISRC USEW10000175
INDEX 01 32:14:13
TRACK 10 AUDIO
TITLE “I’ll Cast A Shadow”
PERFORMER “Pantera”
ISRC USEW10000176
INDEX 01 38:36:49

REM GENRE Groove / Thrash Metal
REM DATE 1994/2011
REM DISCID 8D0D3B0C
REM COMMENT “ExactAudioCopy v1.1”
CATALOG 0081227975487
PERFORMER “Pantera”
TITLE “Far Beyond Driven (8122797548)”
FILE “Pantera – Far Beyond Driven (8122797548).flac” WAVE
TRACK 01 AUDIO
TITLE “Strength Beyond Strength”
PERFORMER “Pantera”
ISRC USEE10170422
INDEX 00 00:00:00
INDEX 01 00:00:32
TRACK 02 AUDIO
TITLE “Becoming”
PERFORMER “Pantera”
ISRC USEE10170423
INDEX 01 03:39:05
TRACK 03 AUDIO
TITLE “5 Minutes Alone”
PERFORMER “Pantera”
ISRC USEE10170424
INDEX 01 06:44:12
TRACK 04 AUDIO
TITLE “I’m Broken”
PERFORMER “Pantera”
ISRC USEE10170425
INDEX 01 12:31:45
TRACK 05 AUDIO
TITLE “Good Friends And A Bottle Of Pills”
PERFORMER “Pantera”
ISRC USEE10170426
INDEX 01 16:56:30
TRACK 06 AUDIO
TITLE “Hard Lines, Sunken Cheeks”
PERFORMER “Pantera”
ISRC USEE10170427
INDEX 01 19:49:25
TRACK 07 AUDIO
TITLE “Slaughtered”
PERFORMER “Pantera”
ISRC USEE10170428
INDEX 01 26:50:60
TRACK 08 AUDIO
TITLE “25 Years”
PERFORMER “Pantera”
ISRC USEE10170430
INDEX 01 30:47:62
TRACK 09 AUDIO
TITLE “Shedding Skin”
PERFORMER “Pantera”
ISRC USEE10170431
INDEX 01 36:53:27
TRACK 10 AUDIO
TITLE “Use My Third Arm”
PERFORMER “Pantera”
ISRC USEE10170432
INDEX 01 42:30:12
TRACK 11 AUDIO
TITLE “Throes Of Rejection”
PERFORMER “Pantera”
ISRC USEE10170433
INDEX 01 47:22:00
TRACK 12 AUDIO
TITLE “Planet Caravan”
PERFORMER “Pantera”
ISRC USEE10170429
INDEX 01 52:23:45


Spread the Download

Leave a Reply

Your email address will not be published. Required fields are marked *

Enter the text from the image below
 

This site uses Akismet to reduce spam. Learn how your comment data is processed.