Pantera – Official Live: 101 Proof




[Total: 0    Average: 0/5]

Artist: Pantera
Year: 1997
Genre: Metal
Notes: Discogs
Add. Notes:
Cover incl.: Yes
Encoder: FLAC
Bitrate: ~1000 kBit/s (44.1 kHz/16 Bit/s)
Log & Cue incl.: Yes
Size: 604,36 MB
Password: “slam” (without ” “)


All Downloads/Hosters are compatible

Download 1
Share-online.biz
KatFile.com
Rapidgator.net
Download 2
Share-online.biz
KatFile.com
Rapidgator.net

Tracklist:

1 - New Level - 4:24
2 - Walk - 5:50
3 - Becoming - 3:59
4 - 5 Minutes Alone - 5:36
5 - Sandblasted Skin - 4:29
6 - Suicide Note Pt. 2 - 4:20
7 - War Nerve - 5:21
8 - Strength Beyond Strength - 3:37
9 - Dom/Hollow - 3:43
10 - This Love - 6:57
11 - I'm Broken - 4:27
12 - Cowboys From Hell - 4:35
13 - Cemetery Gates - 7:53
14 - Hostile - 3:56
15 - Where You Come From - 5:11
16 - I Can't Hide - 2:16

EAC-Log, CUE-Sheed & NFO:

Click to open spoiler
Exact Audio Copy V1.1 from 23. June 2015

EAC extraction logfile from 6. March 2017, 16:52

Pantera / Official Live – 101 Proof

Used drive : HL-DT-STBD-RE GGW-H20L Adapter: 1 ID: 0

Read mode : Secure
Utilize accurate stream : Yes
Defeat audio cache : Yes
Make use of C2 pointers : No

Read offset correction : 667
Overread into Lead-In and Lead-Out : No
Fill up missing offset samples with silence : Yes
Delete leading and trailing silent blocks : No
Null samples used in CRC calculations : Yes
Used interface : Native Win32 interface for Win NT & 2000

Used output format : User Defined Encoder
Selected bitrate : 128 kBit/s
Quality : High
Add ID3 tag : No
Command line compressor : C:\Program Files (x86)\Exact Audio Copy\Flac\flac.exe
Additional command line options : -V -8 -T “Date=%year%” -T “Genre=%genre%” %source%

TOC of the extracted CD

Track | Start | Length | Start sector | End sector
———————————————————
1 | 0:00.00 | 4:24.15 | 0 | 19814
2 | 4:24.15 | 5:50.22 | 19815 | 46086
3 | 10:14.37 | 3:59.05 | 46087 | 64016
4 | 14:13.42 | 5:36.30 | 64017 | 89246
5 | 19:49.72 | 4:29.18 | 89247 | 109439
6 | 24:19.15 | 4:20.37 | 109440 | 128976
7 | 28:39.52 | 5:21.18 | 128977 | 153069
8 | 34:00.70 | 3:37.22 | 153070 | 169366
9 | 37:38.17 | 3:43.65 | 169367 | 186156
10 | 41:22.07 | 6:57.68 | 186157 | 217499
11 | 48:20.00 | 4:26.57 | 217500 | 237506
12 | 52:46.57 | 4:35.53 | 237507 | 258184
13 | 57:22.35 | 7:53.32 | 258185 | 293691
14 | 65:15.67 | 3:55.70 | 293692 | 311386
15 | 69:11.62 | 5:11.13 | 311387 | 334724
16 | 74:23.00 | 2:16.45 | 334725 | 344969

Range status and errors

Selected range

Filename C:\Users\iyasm\Desktop\Pantera – Reinventing The Steel\Pantera – Official Live – 101 Proof\Pantera – Official Live – 101 Proof.wav

Peak level 99.8 %
Extraction speed 7.8 X
Range quality 100.0 %
Test CRC 6D6A30F9
Copy CRC 6D6A30F9
Copy OK

No errors occurred

AccurateRip summary

Track 1 accurately ripped (confidence 73) [EB6F29D8] (AR v2)
Track 2 accurately ripped (confidence 72) [E89F6B44] (AR v2)
Track 3 accurately ripped (confidence 72) [A6B2DBB1] (AR v2)
Track 4 accurately ripped (confidence 75) [4D4F4730] (AR v2)
Track 5 accurately ripped (confidence 75) [13AF6E8A] (AR v2)
Track 6 accurately ripped (confidence 74) [6D7CBC83] (AR v2)
Track 7 accurately ripped (confidence 74) [2196D15B] (AR v2)
Track 8 accurately ripped (confidence 75) [C85F9A1F] (AR v2)
Track 9 accurately ripped (confidence 73) [2A1D8BD1] (AR v2)
Track 10 accurately ripped (confidence 73) [B9DE1C1D] (AR v2)
Track 11 accurately ripped (confidence 74) [D6D54335] (AR v2)
Track 12 accurately ripped (confidence 75) [464CE3AB] (AR v2)
Track 13 accurately ripped (confidence 73) [2164F0CD] (AR v2)
Track 14 accurately ripped (confidence 73) [7415DC13] (AR v2)
Track 15 accurately ripped (confidence 70) [E784DEBD] (AR v2)
Track 16 accurately ripped (confidence 73) [6809CEEA] (AR v2)

All tracks accurately ripped

End of status report

—- CUETools DB Plugin V2.1.6

[CTDB TOCID: 4cj2dTegCbtitoQLReVQDZYXMjA-] found
Submit result: 4cj2dTegCbtitoQLReVQDZYXMjA- has been confirmed
Track | CTDB Status
1 | (169/170) Accurately ripped
2 | (168/170) Accurately ripped
3 | (168/170) Accurately ripped
4 | (168/170) Accurately ripped
5 | (168/170) Accurately ripped
6 | (168/170) Accurately ripped
7 | (166/170) Accurately ripped
8 | (168/170) Accurately ripped
9 | (169/170) Accurately ripped
10 | (168/170) Accurately ripped
11 | (167/170) Accurately ripped
12 | (167/170) Accurately ripped
13 | (166/170) Accurately ripped
14 | (168/170) Accurately ripped
15 | (162/170) Accurately ripped
16 | (164/170) Accurately ripped

==== Log checksum A7156C6D3882DA121998ACF3A00E9783A2D7021DB609F48C6D923DEC8B25E6FA ====

REM GENRE Groove / Thrash Metal
REM DATE 1997
REM DISCID D811F710
REM COMMENT “ExactAudioCopy v1.1”
PERFORMER “Pantera”
TITLE “Official Live: 101 Proof (7559-62068-2)”
FILE “Pantera – Official Live – 101 Proof (7559-62068-2).flac” WAVE
TRACK 01 AUDIO
TITLE “A New Level”
PERFORMER “Pantera”
INDEX 01 00:00:00
TRACK 02 AUDIO
TITLE “Walk”
PERFORMER “Pantera”
INDEX 01 04:24:15
TRACK 03 AUDIO
TITLE “Becoming”
PERFORMER “Pantera”
INDEX 01 10:14:37
TRACK 04 AUDIO
TITLE “5 Minutes Alone”
PERFORMER “Pantera”
INDEX 01 14:13:42
TRACK 05 AUDIO
TITLE “Sandblasted Skin”
PERFORMER “Pantera”
INDEX 01 19:49:72
TRACK 06 AUDIO
TITLE “Suicide Note Pt. 2”
PERFORMER “Pantera”
INDEX 01 24:19:15
TRACK 07 AUDIO
TITLE “War Nerve”
PERFORMER “Pantera”
INDEX 01 28:39:52
TRACK 08 AUDIO
TITLE “Strength Beyond Strength”
PERFORMER “Pantera”
INDEX 01 34:00:70
TRACK 09 AUDIO
TITLE “Domination / Hollow”
PERFORMER “Pantera”
INDEX 01 37:38:17
TRACK 10 AUDIO
TITLE “This Love”
PERFORMER “Pantera”
INDEX 01 41:22:07
TRACK 11 AUDIO
TITLE “I’m Broken”
PERFORMER “Pantera”
INDEX 01 48:20:00
TRACK 12 AUDIO
TITLE “Cowboys From Hell”
PERFORMER “Pantera”
INDEX 00 52:45:15
INDEX 01 52:46:57
TRACK 13 AUDIO
TITLE “Cemetery Gates”
PERFORMER “Pantera”
INDEX 01 57:22:35
TRACK 14 AUDIO
TITLE “Fucking Hostile”
PERFORMER “Pantera”
INDEX 01 65:15:67
TRACK 15 AUDIO
TITLE “Where You Come From (Studio Recording May ’97)”
PERFORMER “Pantera”
INDEX 00 69:11:27
INDEX 01 69:11:62
TRACK 16 AUDIO
TITLE “I Can’t Hide (Studio Recording May ’97)”
PERFORMER “Pantera”
INDEX 01 74:23:00


Spread the Download

Leave a Reply

Your email address will not be published. Required fields are marked *

Enter the text from the image below
 

This site uses Akismet to reduce spam. Learn how your comment data is processed.