Pantera – Official Live: 101 Proof (US Edition)




[Total: 0    Average: 0/5]

Artist: Pantera
Year: 1997
Genre: Rock
Notes: Discogs
Add. Notes: US Edition
Cover incl.: Yes
Encoder: FLAC
Bitrate: ~1000 kBit/s (44.1 kHz/16 Bit/s)
Log & Cue incl.: Yes
Size: 600,89 MB
Password: “slam” (without ” “)


All Downloads/Hosters are compatible

Download 1
Share-online.biz
KatFile.com
Rapidgator.net
Mexa.sh
Download 2
Share-online.biz
KatFile.com
Rapidgator.net
Mexa.sh

Tracklist:

1 - A New Level - 4:24
2 - Walk - 5:50
3 - Becoming - 3:59
4 - 5 Minutes Alone - 5:36
5 - Sandblasted Skin - 4:29
6 - Suicide Note Pt. 2 - 4:20
7 - War Nerve - 5:21
8 - Strength Beyond Strength - 3:37
9 - Dom/Hollow - 3:43
10 - This Love - 6:57
11 - I'm Broken - 4:27
12 - Cowboys From Hell - 4:35
13 - Cemetery Gates - 7:53
14 - Fucking Hostile - 3:56
15 - Where You Come From - 5:11
16 - I Can't Hide - 2:16

EAC-Log, CUE-Sheed & NFO:

Click to open spoiler
Exact Audio Copy V1.3 from 2. September 2016

EAC extraction logfile from 15. October 2017, 23:54

Pantera / Official Live: 101 Proof (62068-2)

Used drive : ASUS DRW-24B1ST Adapter: 1 ID: 1

Read mode : Secure
Utilize accurate stream : Yes
Defeat audio cache : Yes
Make use of C2 pointers : No

Read offset correction : 6
Overread into Lead-In and Lead-Out : No
Fill up missing offset samples with silence : Yes
Delete leading and trailing silent blocks : No
Null samples used in CRC calculations : Yes
Used interface : Native Win32 interface for Win NT & 2000

Used output format : User Defined Encoder
Selected bitrate : 1024 kBit/s
Quality : High
Add ID3 tag : No
Command line compressor : C:\Program Files (x86)\Exact Audio Copy\Flac\flac.exe
Additional command line options : -V -8 -T “Genre=%genre%” -T “Artist=%artist%” -T “Title=%title%” -T “Album=%albumtitle%” -T “Date=%year%” -T “Tracknumber=%tracknr%” -T “Comment=%comment%” %source%

TOC of the extracted CD

Track | Start | Length | Start sector | End sector
———————————————————
1 | 0:00.32 | 4:24.33 | 32 | 19864
2 | 4:24.65 | 5:50.15 | 19865 | 46129
3 | 10:15.05 | 3:59.05 | 46130 | 64059
4 | 14:14.10 | 5:36.25 | 64060 | 89284
5 | 19:50.35 | 4:29.30 | 89285 | 109489
6 | 24:19.65 | 4:20.30 | 109490 | 129019
7 | 28:40.20 | 5:21.20 | 129020 | 153114
8 | 34:01.40 | 3:37.20 | 153115 | 169409
9 | 37:38.60 | 3:43.62 | 169410 | 186196
10 | 41:22.47 | 6:57.70 | 186197 | 217541
11 | 48:20.42 | 4:26.53 | 217542 | 237544
12 | 52:47.20 | 4:35.60 | 237545 | 258229
13 | 57:23.05 | 7:53.27 | 258230 | 293731
14 | 65:16.32 | 3:56.03 | 293732 | 311434
15 | 69:12.35 | 5:11.10 | 311435 | 334769
16 | 74:23.45 | 2:16.37 | 334770 | 345006

Range status and errors

Selected range

Filename E:\Torrent\Ginger Devil\Pantera – Official Live – 101 Proof (EastWest, 62068-2, U.S.A.)\Pantera – Official Live – 101 Proof (62068-2).wav

Peak level 99.8 %
Extraction speed 4.9 X
Range quality 100.0 %
Test CRC 95025CD5
Copy CRC 95025CD5
Copy OK

No errors occurred

AccurateRip summary

Track 1 accurately ripped (confidence 72) [72824913] (AR v2)
Track 2 accurately ripped (confidence 72) [770EDD13] (AR v2)
Track 3 accurately ripped (confidence 73) [1FCD309D] (AR v2)
Track 4 accurately ripped (confidence 73) [E4CBFA1E] (AR v2)
Track 5 accurately ripped (confidence 73) [57A123FB] (AR v2)
Track 6 accurately ripped (confidence 74) [6EE63E09] (AR v2)
Track 7 accurately ripped (confidence 74) [387A4AC8] (AR v2)
Track 8 accurately ripped (confidence 74) [18501ADF] (AR v2)
Track 9 accurately ripped (confidence 71) [EA1312D8] (AR v2)
Track 10 accurately ripped (confidence 72) [B61C1CD2] (AR v2)
Track 11 accurately ripped (confidence 72) [7F456782] (AR v2)
Track 12 accurately ripped (confidence 73) [C275DC2B] (AR v2)
Track 13 accurately ripped (confidence 71) [7438C62F] (AR v2)
Track 14 accurately ripped (confidence 71) [E4954A32] (AR v2)
Track 15 accurately ripped (confidence 70) [F34A0B01] (AR v2)
Track 16 accurately ripped (confidence 70) [307F63FB] (AR v2)

All tracks accurately ripped

End of status report

—- CUETools DB Plugin V2.1.6

[CTDB TOCID: 6X.PhnUXbFmpU3_AbcxpRg8D0h4-] found
Submit result: 6X.PhnUXbFmpU3_AbcxpRg8D0h4- has been confirmed
Track | CTDB Status
1 | (119/122) Accurately ripped
2 | (118/122) Accurately ripped
3 | (119/122) Accurately ripped
4 | (119/122) Accurately ripped
5 | (117/122) Accurately ripped
6 | (119/122) Accurately ripped
7 | (118/122) Accurately ripped
8 | (119/122) Accurately ripped
9 | (118/122) Accurately ripped
10 | (117/122) Accurately ripped
11 | (117/122) Accurately ripped
12 | (116/122) Accurately ripped
13 | (117/122) Accurately ripped
14 | (118/122) Accurately ripped
15 | (117/122) Accurately ripped
16 | (112/122) Accurately ripped

==== Log checksum 76D5AC2C244DD5310F0494DF09A6440B11AF919C4C233CB64832B4BB9B454F5D ====

REM GENRE Groove / Thrash Metal
REM DATE 1997
REM DISCID E111F810
REM COMMENT “ExactAudioCopy v1.3”
CATALOG 0075676206827
PERFORMER “Pantera”
TITLE “Official Live: 101 Proof (62068-2)”
REM COMPOSER “Pantera”
FILE “Pantera – Official Live – 101 Proof (62068-2).flac” WAVE
TRACK 01 AUDIO
TITLE “A New Level”
PERFORMER “Pantera”
REM COMPOSER “Pantera”
ISRC USEW19794529
INDEX 00 00:00:00
INDEX 01 00:00:32
TRACK 02 AUDIO
TITLE “Walk”
PERFORMER “Pantera”
REM COMPOSER “Pantera”
ISRC USEW19794530
INDEX 00 04:24:63
INDEX 01 04:24:65
TRACK 03 AUDIO
TITLE “Becoming”
PERFORMER “Pantera”
REM COMPOSER “Pantera”
ISRC USEW19697915
INDEX 00 10:15:03
INDEX 01 10:15:05
TRACK 04 AUDIO
TITLE “5 Minutes Alone”
PERFORMER “Pantera”
REM COMPOSER “Pantera”
ISRC USEW19794531
INDEX 00 14:14:08
INDEX 01 14:14:10
TRACK 05 AUDIO
TITLE “Sandblasted Skin”
PERFORMER “Pantera”
REM COMPOSER “Pantera”
ISRC USEW19794532
INDEX 00 19:50:33
INDEX 01 19:50:35
TRACK 06 AUDIO
TITLE “Suicide Note Pt. 2”
PERFORMER “Pantera”
REM COMPOSER “Pantera”
ISRC USEW19794533
INDEX 00 24:19:63
INDEX 01 24:19:65
TRACK 07 AUDIO
TITLE “War Nerve”
PERFORMER “Pantera”
REM COMPOSER “Pantera”
ISRC USEW19794533
INDEX 00 28:40:18
INDEX 01 28:40:20
TRACK 08 AUDIO
TITLE “Strength Beyond Strength”
PERFORMER “Pantera”
REM COMPOSER “Pantera”
ISRC USEW19794534
INDEX 00 34:01:38
INDEX 01 34:01:40
TRACK 09 AUDIO
TITLE “Domination / Hollow”
PERFORMER “Pantera”
REM COMPOSER “Pantera”
ISRC USEW19794534
INDEX 00 37:38:58
INDEX 01 37:38:60
TRACK 10 AUDIO
TITLE “This Love”
PERFORMER “Pantera”
REM COMPOSER “Pantera”
ISRC USEW19794536
INDEX 00 41:22:45
INDEX 01 41:22:47
TRACK 11 AUDIO
TITLE “I’m Broken”
PERFORMER “Pantera”
REM COMPOSER “Pantera”
ISRC USEW19794536
INDEX 00 48:20:40
INDEX 01 48:20:42
TRACK 12 AUDIO
TITLE “Cowboys From Hell”
PERFORMER “Pantera”
REM COMPOSER “Pantera”
ISRC USEW19794538
INDEX 00 52:46:03
INDEX 01 52:47:20
TRACK 13 AUDIO
TITLE “Cemetery Gates”
PERFORMER “Pantera”
REM COMPOSER “Pantera”
ISRC USEW19794539
INDEX 00 57:23:03
INDEX 01 57:23:05
TRACK 14 AUDIO
TITLE “Fucking Hostile”
PERFORMER “Pantera”
REM COMPOSER “Pantera”
ISRC USEW19794540
INDEX 00 65:16:30
INDEX 01 65:16:32
TRACK 15 AUDIO
TITLE “Where You Come From (Studio Recording May ’97)”
PERFORMER “Pantera”
REM COMPOSER “Pantera”
ISRC USEW19794540
INDEX 00 69:12:33
INDEX 01 69:12:35
TRACK 16 AUDIO
TITLE “I Can’t Hide (Studio Recording May ’97)”
PERFORMER “Pantera”
REM COMPOSER “Pantera”
ISRC USEW19794542
INDEX 00 74:23:43
INDEX 01 74:23:45


Spread the Download

Leave a Reply

Your email address will not be published. Required fields are marked *

Enter the text from the image below
 

This site uses Akismet to reduce spam. Learn how your comment data is processed.