Pantera – Official Live: 101 Proof (Japanese Edition)




[Total: 0    Average: 0/5]

Artist: Pantera
Year: 1997
Genre: Metal
Notes: Discogs
Add. Notes: Japanese Edition
Cover incl.: Yes
Encoder: FLAC
Bitrate: ~1100 kBit/s (44.1 kHz/16 Bit/s)
Log & Cue incl.: Yes
Size: 703,33 MB
Password: “slam” (without ” “)


All Downloads/Hosters are compatible

Download 1
Share-online.biz
KatFile.com
Rapidgator.net
Download 2
Share-online.biz
KatFile.com
Rapidgator.net

Tracklist:

1. New Level 	
2. Walk 	
3. Becoming 	
4. 5 Minutes Alone 	
5. Sandblasted Skin 	
6. Suicide Note Pt. 2 	
7. War Nerve 	
8. Strength Beyond Strength 	
9. Dom/Hollow 	
10. This Love 	
11. I'm Broken 	
12. Cowboys From Hell 	
13. Cemetery Gates 	
14. Fuckin Hostile 	
15. Where You Come From 	
16.	I Can't Hide

EAC-Log, CUE-Sheed & NFO:

Click to open spoiler
Exact Audio Copy V1.1 from 23. June 2015

EAC extraction logfile from 13. January 2016, 16:21

Pantera / Official Live 101 Proof (Japan, AMCY-2309)

Used drive : PIONEER DVD-RW DVR-219L Adapter: 1 ID: 1

Read mode : Secure
Utilize accurate stream : Yes
Defeat audio cache : Yes
Make use of C2 pointers : No

Read offset correction : 6
Overread into Lead-In and Lead-Out : No
Fill up missing offset samples with silence : Yes
Delete leading and trailing silent blocks : No
Null samples used in CRC calculations : Yes
Used interface : Native Win32 interface for Win NT & 2000

Used output format : Internal WAV Routines
Sample format : 44.100 Hz; 16 Bit; Stereo

TOC of the extracted CD

Track | Start | Length | Start sector | End sector
———————————————————
1 | 0:00.00 | 4:24.40 | 0 | 19839
2 | 4:24.40 | 5:50.10 | 19840 | 46099
3 | 10:14.50 | 3:59.05 | 46100 | 64029
4 | 14:13.55 | 5:36.33 | 64030 | 89262
5 | 19:50.13 | 4:29.20 | 89263 | 109457
6 | 24:19.33 | 4:20.35 | 109458 | 128992
7 | 28:39.68 | 5:21.17 | 128993 | 153084
8 | 34:01.10 | 3:37.23 | 153085 | 169382
9 | 37:38.33 | 3:43.65 | 169383 | 186172
10 | 41:22.23 | 6:57.67 | 186173 | 217514
11 | 48:20.15 | 4:26.58 | 217515 | 237522
12 | 52:46.73 | 4:35.55 | 237523 | 258202
13 | 57:22.53 | 7:53.30 | 258203 | 293707
14 | 65:16.08 | 3:55.72 | 293708 | 311404
15 | 69:12.05 | 5:11.13 | 311405 | 334742
16 | 74:23.18 | 2:16.42 | 334743 | 344984

Range status and errors

Selected range

Filename D:\CDRip for Johnny\Pantera – Official Live 101 Proof (Japan, AMCY-2309).wav

Peak level 99.8 %
Extraction speed 8.1 X
Range quality 100.0 %
Test CRC FBB6A4B8
Copy CRC FBB6A4B8
Copy OK

No errors occurred

AccurateRip summary

Track 1 accurately ripped (confidence 6) [9C45802D] (AR v2)
Track 2 accurately ripped (confidence 6) [5F567F27] (AR v2)
Track 3 accurately ripped (confidence 6) [54D50D9F] (AR v2)
Track 4 accurately ripped (confidence 6) [147AA627] (AR v2)
Track 5 accurately ripped (confidence 6) [3B1A9ACB] (AR v2)
Track 6 accurately ripped (confidence 6) [1488D3FF] (AR v2)
Track 7 accurately ripped (confidence 6) [B4B63E20] (AR v2)
Track 8 accurately ripped (confidence 6) [C0F42BB3] (AR v2)
Track 9 accurately ripped (confidence 6) [251C1732] (AR v2)
Track 10 accurately ripped (confidence 6) [71DC38F8] (AR v2)
Track 11 accurately ripped (confidence 6) [8F975CD7] (AR v2)
Track 12 accurately ripped (confidence 6) [A6D24FA1] (AR v2)
Track 13 accurately ripped (confidence 6) [059DF219] (AR v2)
Track 14 accurately ripped (confidence 6) [E01EA9BA] (AR v2)
Track 15 accurately ripped (confidence 6) [3DCAE43D] (AR v2)
Track 16 accurately ripped (confidence 6) [0B566CA5] (AR v2)

All tracks accurately ripped

End of status report

—- CUETools DB Plugin V2.1.6

[CTDB TOCID: TAG64ecswBrR3p63sxNcjE22zzU-] found
Submit result: already submitted
Track | CTDB Status
1 | (10/10) Accurately ripped
2 | (10/10) Accurately ripped
3 | (10/10) Accurately ripped
4 | (10/10) Accurately ripped
5 | (10/10) Accurately ripped
6 | (10/10) Accurately ripped
7 | (10/10) Accurately ripped
8 | (10/10) Accurately ripped
9 | (10/10) Accurately ripped
10 | (10/10) Accurately ripped
11 | (10/10) Accurately ripped
12 | (10/10) Accurately ripped
13 | (10/10) Accurately ripped
14 | (10/10) Accurately ripped
15 | (10/10) Accurately ripped
16 | (10/10) Accurately ripped

==== Log checksum DF852723BC9E5B51BBF651CBED027DD345964AF932148AD736135E9269A12CFC ====

REM GENRE Groove / Thrash Metal
REM DATE 1997
REM DISCID DC11F710
REM COMMENT “ExactAudioCopy v1.1”
CATALOG 4988029230942
PERFORMER “Pantera”
TITLE “Official Live: 101 Proof (AMCY-2309)”
FILE “Pantera – Official Live – 101 Proof (AMCY-2309).flac” WAVE
TRACK 01 AUDIO
TITLE “A New Level”
PERFORMER “Pantera”
ISRC USEW19794529
INDEX 01 00:00:00
TRACK 02 AUDIO
TITLE “Walk”
PERFORMER “Pantera”
ISRC USEW19794530
INDEX 01 04:24:40
TRACK 03 AUDIO
TITLE “Becoming”
PERFORMER “Pantera”
ISRC USEW19697915
INDEX 01 10:14:50
TRACK 04 AUDIO
TITLE “5 Minutes Alone”
PERFORMER “Pantera”
ISRC USEW19794531
INDEX 01 14:13:55
TRACK 05 AUDIO
TITLE “Sandblasted Skin”
PERFORMER “Pantera”
ISRC USEW19794532
INDEX 01 19:50:13
TRACK 06 AUDIO
TITLE “Suicide Note Pt.2”
PERFORMER “Pantera”
ISRC USEW19794533
INDEX 01 24:19:33
TRACK 07 AUDIO
TITLE “War Nerve”
PERFORMER “Pantera”
ISRC USEW19697916
INDEX 01 28:39:68
TRACK 08 AUDIO
TITLE “Strength Beyond Strength”
PERFORMER “Pantera”
ISRC USEW19794534
INDEX 01 34:01:10
TRACK 09 AUDIO
TITLE “Domination / Hollow”
PERFORMER “Pantera”
ISRC USEW19794535
INDEX 01 37:38:33
TRACK 10 AUDIO
TITLE “This Love”
PERFORMER “Pantera”
ISRC USEW19794536
INDEX 01 41:22:23
TRACK 11 AUDIO
TITLE “I’m Broken”
PERFORMER “Pantera”
ISRC USEW19794537
INDEX 01 48:20:15
TRACK 12 AUDIO
TITLE “Cowboys From Hell”
PERFORMER “Pantera”
ISRC USEW19794538
INDEX 00 52:45:53
INDEX 01 52:46:73
TRACK 13 AUDIO
TITLE “Cemetery Gates”
PERFORMER “Pantera”
ISRC USEW19794539
INDEX 01 57:22:53
TRACK 14 AUDIO
TITLE “Hostile”
PERFORMER “Pantera”
ISRC USEW19794540
INDEX 01 65:16:08
TRACK 15 AUDIO
TITLE “Where You Come From (Studio Recording May ’97)”
PERFORMER “Pantera”
ISRC USEW19794541
INDEX 00 69:11:58
INDEX 01 69:12:05
TRACK 16 AUDIO
TITLE “I Can’t Hide (Studio Recording May ’97)”
PERFORMER “Pantera”
ISRC USEW19794542
INDEX 01 74:23:18


Spread the Download

Leave a Reply

Your email address will not be published. Required fields are marked *

Enter the text from the image below
 

This site uses Akismet to reduce spam. Learn how your comment data is processed.