Pantera – Live At Dynamo Open Air 1998




Artist: Pantera
Year: 2018
Genre: Rock
Notes: Discogs
Add. Notes:
Cover incl.: Yes
Encoder: FLAC
Bitrate: ~1000 kBit/s (44.1 kHz/16 Bit/s)
Log & Cue incl.: Yes
Size: 543 MB
Password: “slam” (without ” “)


All Downloads/Hosters are compatible

Download 1
KatFile.com
Turbobit.net
Rapidgator.net
FileFactory.com
Download 2
KatFile.com
Turbobit.net
Rapidgator.net
FileFactory.com

Tracklist:

1 - Walk - 5:41
2 - A New Level - 5:18
3 - Suicide Note Pt. II - 4:38
4 - War Nerve - 5:31
5 - Becoming - 5:03
6 - Sandblasted Skin - 3:47
7 - Hard Lines Sunken Cheeks - 7:16
8 - Primal Concrete Sledge - 3:20
9 - I'm Broken - 4:34
10 - Fucking Hostile - 2:51
11 - This Love - 7:24
12 - Domination, Hollow - 4:37
13 - Mouth For War - 4:24
14 - Cowboys From Hell - 6:44

EAC-Log, CUE-Sheed & NFO:

Click to open spoiler
Exact Audio Copy V1.3 from 2. September 2016

EAC extraction logfile from 1. November 2018, 10:26

Pantera / Live At Dynamo Open Air 1998

Used drive : ATAPI iHAS122 F Adapter: 1 ID: 1

Read mode : Secure
Utilize accurate stream : Yes
Defeat audio cache : Yes
Make use of C2 pointers : No

Read offset correction : 6
Overread into Lead-In and Lead-Out : No
Fill up missing offset samples with silence : Yes
Delete leading and trailing silent blocks : No
Null samples used in CRC calculations : Yes
Used interface : Native Win32 interface for Win NT & 2000

Used output format : User Defined Encoder
Selected bitrate : 1024 kBit/s
Quality : High
Add ID3 tag : No
Command line compressor : G:\Install\All for Music\Lossless\FLAC 1.3.2\flac-1.3.2-win original\flac-1.3.2-win\win64\flac.exe
Additional command line options : -V -8 -T “Genre=%genre%” -T “Artist=%artist%” -T “Title=%title%” -T “Album=%albumtitle%” -T “Date=%year%” -T “Tracknumber=%tracknr%” -T “Comment=%comment%” %source%

TOC of the extracted CD

Track | Start | Length | Start sector | End sector
———————————————————
1 | 0:00.00 | 5:41.21 | 0 | 25595
2 | 5:41.21 | 5:17.71 | 25596 | 49441
3 | 10:59.17 | 4:38.04 | 49442 | 70295
4 | 15:37.21 | 5:31.37 | 70296 | 95157
5 | 21:08.58 | 5:03.26 | 95158 | 117908
6 | 26:12.09 | 3:47.15 | 117909 | 134948
7 | 29:59.24 | 7:16.57 | 134949 | 167705
8 | 37:16.06 | 3:20.16 | 167706 | 182721
9 | 40:36.22 | 4:34.22 | 182722 | 203293
10 | 45:10.44 | 2:51.40 | 203294 | 216158
11 | 48:02.09 | 7:24.11 | 216159 | 249469
12 | 55:26.20 | 4:37.35 | 249470 | 270279
13 | 60:03.55 | 4:24.63 | 270280 | 290142
14 | 64:28.43 | 6:44.30 | 290143 | 320472

Range status and errors

Selected range

Filename F:\# Torrent\Ginger Devil\Pantera – Live At Dynamo Open Air 1998\Pantera – Live At Dynamo Open Air 1998.wav

Peak level 97.0 %
Extraction speed 9.8 X
Range quality 100.0 %
Test CRC A3C5FA28
Copy CRC A3C5FA28
Copy OK

No errors occurred

AccurateRip summary

Track 1 accurately ripped (confidence 5) [8D7C61C3] (AR v2)
Track 2 accurately ripped (confidence 5) [E6F64023] (AR v2)
Track 3 accurately ripped (confidence 5) [724F7DA7] (AR v2)
Track 4 accurately ripped (confidence 5) [DBF0ED6D] (AR v2)
Track 5 accurately ripped (confidence 5) [67887C39] (AR v2)
Track 6 accurately ripped (confidence 5) [616FFE37] (AR v2)
Track 7 accurately ripped (confidence 5) [771BB7F1] (AR v2)
Track 8 accurately ripped (confidence 5) [52B29E73] (AR v2)
Track 9 accurately ripped (confidence 5) [EB131133] (AR v2)
Track 10 accurately ripped (confidence 5) [641C74BB] (AR v2)
Track 11 accurately ripped (confidence 5) [CA5F6993] (AR v2)
Track 12 accurately ripped (confidence 5) [11DAFF93] (AR v2)
Track 13 accurately ripped (confidence 5) [9795A5FE] (AR v2)
Track 14 accurately ripped (confidence 4) [F2551FE8] (AR v2)

All tracks accurately ripped

End of status report

—- CUETools DB Plugin V2.1.6

[CTDB TOCID: zq1ZHagx4ccib183rt72j0zivzo-] found
Submit result: zq1ZHagx4ccib183rt72j0zivzo- has been confirmed
Track | CTDB Status
1 | (20/21) Accurately ripped
2 | (21/21) Accurately ripped
3 | (21/21) Accurately ripped
4 | (21/21) Accurately ripped
5 | (21/21) Accurately ripped
6 | (21/21) Accurately ripped
7 | (21/21) Accurately ripped
8 | (21/21) Accurately ripped
9 | (21/21) Accurately ripped
10 | (21/21) Accurately ripped
11 | (21/21) Accurately ripped
12 | (21/21) Accurately ripped
13 | (21/21) Accurately ripped
14 | (21/21) Accurately ripped

==== Log checksum 0C6B0286182EBCF3EF949E424094FAC9E4D2908BF651839760F88EB9C4813C59 ====

REM GENRE “Groove / Thrash Metal”
REM DATE 2018
REM DISCID C510B00E
REM COMMENT “ExactAudioCopy v1.3”
CATALOG 0810555020770
PERFORMER “Pantera”
TITLE “Live At Dynamo Open Air 1998 (0555020770)”
REM COMPOSER “Pantera”
FILE “Pantera – Live At Dynamo Open Air 1998 (0555020770).flac” WAVE
TRACK 01 AUDIO
TITLE “Walk”
PERFORMER “Pantera”
REM COMPOSER “Pantera”
ISRC NLKD81310109
INDEX 01 00:00:00
TRACK 02 AUDIO
TITLE “A New Level”
PERFORMER “Pantera”
REM COMPOSER “Pantera”
ISRC NLKD81310110
INDEX 01 05:41:21
TRACK 03 AUDIO
TITLE “Suicide Note Pt. II”
PERFORMER “Pantera”
REM COMPOSER “Pantera”
ISRC NLKD81310111
INDEX 01 10:59:17
TRACK 04 AUDIO
TITLE “War Nerve”
PERFORMER “Pantera”
REM COMPOSER “Pantera”
ISRC NLKD81310112
INDEX 01 15:37:21
TRACK 05 AUDIO
TITLE “Becoming”
PERFORMER “Pantera”
REM COMPOSER “Pantera”
ISRC NLKD81310113
INDEX 01 21:08:58
TRACK 06 AUDIO
TITLE “Sandblasted Skin”
PERFORMER “Pantera”
REM COMPOSER “Pantera”
ISRC NLKD81310114
INDEX 01 26:12:09
TRACK 07 AUDIO
TITLE “Hard Lines Sunken Cheeks”
PERFORMER “Pantera”
REM COMPOSER “Pantera”
ISRC NLKD81310115
INDEX 01 29:59:24
TRACK 08 AUDIO
TITLE “Primal Concrete Sledge”
PERFORMER “Pantera”
REM COMPOSER “Pantera”
ISRC NLKD81310116
INDEX 01 37:16:06
TRACK 09 AUDIO
TITLE “I’m Broken”
PERFORMER “Pantera”
REM COMPOSER “Pantera”
ISRC NLKD81310117
INDEX 01 40:36:22
TRACK 10 AUDIO
TITLE “Fucking Hostile”
PERFORMER “Pantera”
REM COMPOSER “Pantera”
ISRC NLKD81310118
INDEX 01 45:10:44
TRACK 11 AUDIO
TITLE “This Love”
PERFORMER “Pantera”
REM COMPOSER “Pantera”
ISRC NLKD81310119
INDEX 01 48:02:09
TRACK 12 AUDIO
TITLE “Domination / Hollow”
PERFORMER “Pantera”
REM COMPOSER “Pantera”
ISRC NLKD81310120
INDEX 01 55:26:20
TRACK 13 AUDIO
TITLE “Mouth For War”
PERFORMER “Pantera”
REM COMPOSER “Pantera”
ISRC NLKD81310121
INDEX 01 60:03:55
TRACK 14 AUDIO
TITLE “Cowboys From Hell”
PERFORMER “Pantera”
REM COMPOSER “Pantera”
ISRC NLKD81310122
INDEX 01 64:28:43


Leave a Reply

Your email address will not be published. Required fields are marked *

Enter the text from the image below
 

This site uses Akismet to reduce spam. Learn how your comment data is processed.