Pantera – Far Beyond Driven (Remastered)




[Total: 0    Average: 0/5]

Artist: Pantera
Year: 1994/2004
Genre: Metal
Notes: Discogs
Add. Notes: Remastered
Cover incl.: Yes
Encoder: FLAC
Bitrate: ~1000 kBit/s (44.1 kHz/16 Bit/s)
Log & Cue incl.: Yes
Size: 816,32 MB
Password: “slam” (without ” “)


All Downloads/Hosters are compatible

Download 1
Share-online.biz
KatFile.com
Rapidgator.net
Download 2
Share-online.biz
KatFile.com
Rapidgator.net

Tracklist:

Far Beyond Driven
1-1 - Strength Beyond Strength - 3:38
1-2 - Becoming - 3:05
1-3 - 5 Minutes Alone - 5:48
1-4 - I'm Broken - 4:25
1-5 - Good Friends And A Bottle Of Pills - 2:52
1-6 - Hard Lines, Sunken Cheeks - 7:01
1-7 - Slaughtered - 3:57
1-8 - 25 Years - 6:05
1-9 - Shedding Skin - 5:37
1-10 - Use My Third Arm - 4:52
1-11 - Throes Of Rejection - 5:01
1-12 - Planet Caravan - 3:57
Far Beyond Bootleg - Live From Donington '94
2-1 - Use My Third Arm - 4:04
2-2 - Walk - 5:16
2-3 - Strength Beyond Strength - 4:01
2-4 - Domination / Hollow - 6:54
2-5 - Slaughtered - 3:57
2-6 - Fucking Hostile - 2:57
2-7 - This Love - 7:16
2-8 - Mouth For War - 4:01
2-9 - Cowboys From Hell - 4:49

EAC-Log, CUE-Sheed & NFO:

Click to open spoiler
Exact Audio Copy V1.0 beta 3 from 29. August 2011

EAC extraction logfile from 30. October 2014, 15:18

Pantera / Far Beyond Driven (20th Anniversary Edition)

Used drive : HL-DT-STBD-RE GGW-H20L Adapter: 1 ID: 0

Read mode : Secure
Utilize accurate stream : Yes
Defeat audio cache : Yes
Make use of C2 pointers : No

Read offset correction : 667
Overread into Lead-In and Lead-Out : No
Fill up missing offset samples with silence : Yes
Delete leading and trailing silent blocks : No
Null samples used in CRC calculations : Yes
Used interface : Installed external ASPI interface

Used output format : User Defined Encoder
Selected bitrate : 1024 kBit/s
Quality : High
Add ID3 tag : No
Command line compressor : C:\Program Files (x86)\Exact Audio Copy\Flac\flac.exe
Additional command line options : -V -8 -T “Date=%year%” -T “Genre=%genre%” %source%

TOC of the extracted CD

Track | Start | Length | Start sector | End sector
———————————————————
1 | 0:00.00 | 3:38.65 | 0 | 16414
2 | 3:38.65 | 3:05.72 | 16415 | 30361
3 | 6:44.62 | 5:48.14 | 30362 | 56475
4 | 12:33.01 | 4:25.01 | 56476 | 76351
5 | 16:58.02 | 2:52.59 | 76352 | 89310
6 | 19:50.61 | 7:01.37 | 89311 | 120922
7 | 26:52.23 | 3:57.35 | 120923 | 138732
8 | 30:49.58 | 6:05.68 | 138733 | 166175
9 | 36:55.51 | 5:37.42 | 166176 | 191492
10 | 42:33.18 | 4:52.17 | 191493 | 213409
11 | 47:25.35 | 5:01.14 | 213410 | 235998
12 | 52:26.49 | 3:57.07 | 235999 | 253780

Range status and errors

Selected range

Filename C:\Users\iSmrnv\Desktop\Новая папка (2)\Pantera – Far Beyond Driven (20th Anniversary Edition).wav

Peak level 98.8 %
Extraction speed 7.5 X
Range quality 99.9 %
Test CRC 73C47A65
Copy CRC 73C47A65
Copy OK

No errors occurred

AccurateRip summary

Track 1 accurately ripped (confidence 5) [67743661] (AR v2)
Track 2 accurately ripped (confidence 5) [90DD9763] (AR v2)
Track 3 accurately ripped (confidence 5) [4BA43F8C] (AR v2)
Track 4 accurately ripped (confidence 5) [36F57B06] (AR v2)
Track 5 accurately ripped (confidence 5) [D6777D98] (AR v2)
Track 6 accurately ripped (confidence 5) [1E4F04B3] (AR v2)
Track 7 accurately ripped (confidence 5) [A6A9683B] (AR v2)
Track 8 accurately ripped (confidence 5) [4FDB7F6F] (AR v2)
Track 9 accurately ripped (confidence 5) [6BE0D5F0] (AR v2)
Track 10 accurately ripped (confidence 5) [0B229826] (AR v2)
Track 11 accurately ripped (confidence 5) [41851700] (AR v2)
Track 12 accurately ripped (confidence 5) [DAF2A293] (AR v2)

All tracks accurately ripped

End of status report

—- CUETools DB Plugin V2.1.3

[CTDB TOCID: M0oTZqw2DzZDgoGy5EwkBdCVduk-] found, Submit result: M0oTZqw2DzZDgoGy5EwkBdCVduk- has been confirmed
[707422de] (19/19) Accurately ripped

==== Log checksum 802CFE3358493838F136079C7F89B8EEE32E3282FD7011AAA564B620863587AD ====

Exact Audio Copy V1.0 beta 3 from 29. August 2011

EAC extraction logfile from 30. October 2014, 15:43

Pantera / Far Beyond Bootleg – Live From Donington ’94

Used drive : HL-DT-STBD-RE GGW-H20L Adapter: 1 ID: 0

Read mode : Secure
Utilize accurate stream : Yes
Defeat audio cache : Yes
Make use of C2 pointers : No

Read offset correction : 667
Overread into Lead-In and Lead-Out : No
Fill up missing offset samples with silence : Yes
Delete leading and trailing silent blocks : No
Null samples used in CRC calculations : Yes
Used interface : Installed external ASPI interface

Used output format : User Defined Encoder
Selected bitrate : 1024 kBit/s
Quality : High
Add ID3 tag : No
Command line compressor : C:\Program Files (x86)\Exact Audio Copy\Flac\flac.exe
Additional command line options : -V -8 -T “Date=%year%” -T “Genre=%genre%” %source%

TOC of the extracted CD

Track | Start | Length | Start sector | End sector
———————————————————
1 | 0:00.00 | 4:04.62 | 0 | 18361
2 | 4:04.62 | 5:15.71 | 18362 | 42057
3 | 9:20.58 | 4:01.65 | 42058 | 60197
4 | 13:22.48 | 6:54.02 | 60198 | 91249
5 | 20:16.50 | 3:57.12 | 91250 | 109036
6 | 24:13.62 | 2:57.52 | 109037 | 122363
7 | 27:11.39 | 7:16.22 | 122364 | 155085
8 | 34:27.61 | 4:01.69 | 155086 | 173229
9 | 38:29.55 | 4:49.57 | 173230 | 194961

Range status and errors

Selected range

Filename C:\Users\iSmrnv\Desktop\Новая папка (2)\Disc 2 – Far Beyond Bootleg – Live From Donington ’94\Pantera – Far Beyond Bootleg – Live From Donington ’94.wav

Peak level 100.0 %
Extraction speed 7.1 X
Range quality 100.0 %
Test CRC 7CCDF80B
Copy CRC 7CCDF80B
Copy OK

No errors occurred

AccurateRip summary

Track 1 accurately ripped (confidence 3) [01091472] (AR v2)
Track 2 accurately ripped (confidence 3) [DE9C6CFE] (AR v2)
Track 3 accurately ripped (confidence 3) [51AA187F] (AR v2)
Track 4 accurately ripped (confidence 3) [36EBD27B] (AR v2)
Track 5 accurately ripped (confidence 3) [7AA3825F] (AR v2)
Track 6 accurately ripped (confidence 3) [7D071B82] (AR v2)
Track 7 accurately ripped (confidence 3) [843A0850] (AR v2)
Track 8 accurately ripped (confidence 3) [9B92CCF4] (AR v2)
Track 9 accurately ripped (confidence 3) [F72480BA] (AR v2)

All tracks accurately ripped

End of status report

—- CUETools DB Plugin V2.1.3

[CTDB TOCID: aYYcCLAnCM2zG3cMyyGtcsviXlg-] found, Submit result: aYYcCLAnCM2zG3cMyyGtcsviXlg- has been confirmed
[49ea5fe9] (19/19) Accurately ripped

==== Log checksum 223824ED5B65732A922B88D0847F9D3F98A2DC3C741643BF2EFD00E3B6E19A21 ====

REM GENRE Groove / Thrash Metal
REM DATE 1994/2014
REM DISCID 8E0D370C
REM COMMENT “ExactAudioCopy v1.0b3”
PERFORMER “Pantera”
TITLE “Far Beyond Driven (8122-79602-9)”
FILE “Pantera – Far Beyond Driven (8122-79602-9).flac” WAVE
TRACK 01 AUDIO
TITLE “Strength Beyond Strength”
PERFORMER “Pantera”
FLAGS DCP
INDEX 01 00:00:00
TRACK 02 AUDIO
TITLE “Becoming”
PERFORMER “Pantera”
FLAGS DCP
INDEX 01 03:38:65
TRACK 03 AUDIO
TITLE “5 Minutes Alone”
PERFORMER “Pantera”
FLAGS DCP
INDEX 01 06:44:62
TRACK 04 AUDIO
TITLE “I’m Broken”
PERFORMER “Pantera”
FLAGS DCP
INDEX 01 12:33:01
TRACK 05 AUDIO
TITLE “Good Friends And A Bottle Of Pills”
PERFORMER “Pantera”
FLAGS DCP
INDEX 01 16:58:02
TRACK 06 AUDIO
TITLE “Hard Lines, Sunken Cheeks”
PERFORMER “Pantera”
FLAGS DCP
INDEX 01 19:50:61
TRACK 07 AUDIO
TITLE “Slaughtered”
PERFORMER “Pantera”
FLAGS DCP
INDEX 01 26:52:23
TRACK 08 AUDIO
TITLE “25 Years”
PERFORMER “Pantera”
FLAGS DCP
INDEX 01 30:49:58
TRACK 09 AUDIO
TITLE “Shedding Skin”
PERFORMER “Pantera”
FLAGS DCP
INDEX 01 36:55:51
TRACK 10 AUDIO
TITLE “Use My Third Arm”
PERFORMER “Pantera”
FLAGS DCP
INDEX 01 42:33:18
TRACK 11 AUDIO
TITLE “Throes Of Rejection”
PERFORMER “Pantera”
FLAGS DCP
INDEX 01 47:25:35
TRACK 12 AUDIO
TITLE “Planet Caravan”
PERFORMER “Pantera”
FLAGS DCP
INDEX 01 52:26:49

REM GENRE Groove / Thrash Metal
REM DATE 2014
REM DISCID 670A2709
REM COMMENT “ExactAudioCopy v1.0b3”
PERFORMER “Pantera”
TITLE “Far Beyond Bootleg – Live From Donington ’94 (8122-79602-9)”
FILE “Pantera – Far Beyond Bootleg (8122-79602-9).flac” WAVE
TRACK 01 AUDIO
TITLE “Use My Third Arm”
PERFORMER “Pantera”
FLAGS DCP
INDEX 01 00:00:00
TRACK 02 AUDIO
TITLE “Walk”
PERFORMER “Pantera”
FLAGS DCP
INDEX 01 04:04:62
TRACK 03 AUDIO
TITLE “Strength Beyond Strength”
PERFORMER “Pantera”
FLAGS DCP
INDEX 01 09:20:58
TRACK 04 AUDIO
TITLE “Domination / Hollow”
PERFORMER “Pantera”
FLAGS DCP
INDEX 01 13:22:48
TRACK 05 AUDIO
TITLE “Slaughtered”
PERFORMER “Pantera”
FLAGS DCP
INDEX 01 20:16:50
TRACK 06 AUDIO
TITLE “Fucking Hostile”
PERFORMER “Pantera”
FLAGS DCP
INDEX 01 24:13:62
TRACK 07 AUDIO
TITLE “This Love”
PERFORMER “Pantera”
FLAGS DCP
INDEX 01 27:11:39
TRACK 08 AUDIO
TITLE “Mouth For War”
PERFORMER “Pantera”
FLAGS DCP
INDEX 01 34:27:61
TRACK 09 AUDIO
TITLE “Cowboys From Hell”
PERFORMER “Pantera”
FLAGS DCP
INDEX 01 38:29:55


Spread the Download

Leave a Reply

Your email address will not be published. Required fields are marked *

Enter the text from the image below
 

This site uses Akismet to reduce spam. Learn how your comment data is processed.