Pantera – Far Beyond Driven (Japanese Edition)




[Total: 0    Average: 0/5]

Artist: Pantera
Year: 1994
Genre: Metal
Notes: Discogs
Add. Notes: Japanese Edition
Cover incl.: Yes
Encoder: FLAC
Bitrate: ~1100 kBit/s (44.1 kHz/16 Bit/s)
Log & Cue incl.: Yes
Size: 608,81 MB
Password: “slam” (without ” “)


All Downloads/Hosters are compatible

Download 1
NitroFlare.com
KatFile.com
Share-online.biz
Rapidgator.net
UploadRar.com
Download 2
NitroFlare.com
KatFile.com
Share-online.biz
Rapidgator.net
UploadRar.com

Tracklist:

1 - Strength Beyond Strength - 3:39
2 - Becoming - 3:05
3 - 5 Minutes Alone - 5:50
4 - I'm Broken - 4:25
5 - Good Friends And A Bottle Of Pills - 2:54
6 - Hard Lines, Sunken Cheeks - 7:01
7 - Slaughtered - 3:57
8 - 25 Years - 6:06
9 - Shedding Skin - 5:37
10 - Use My Third Arm - 4:52
11 - Throes Of Rejection - 5:01
12 - Planet Caravan - 4:04
13 - The Badge - 3:55

EAC-Log, CUE-Sheed & NFO:

Click to open spoiler
Exact Audio Copy V1.1 from 23. June 2015

EAC extraction logfile from 12. January 2016, 22:56

Pantera / Far Beyond Driven (Japan, AMCY-670)

Used drive : PIONEER DVD-RW DVR-219L Adapter: 1 ID: 1

Read mode : Secure
Utilize accurate stream : Yes
Defeat audio cache : Yes
Make use of C2 pointers : No

Read offset correction : 6
Overread into Lead-In and Lead-Out : No
Fill up missing offset samples with silence : Yes
Delete leading and trailing silent blocks : No
Null samples used in CRC calculations : Yes
Used interface : Native Win32 interface for Win NT & 2000

Used output format : Internal WAV Routines
Sample format : 44.100 Hz; 16 Bit; Stereo

TOC of the extracted CD

Track | Start | Length | Start sector | End sector
———————————————————
1 | 0:00.00 | 3:39.15 | 0 | 16439
2 | 3:39.15 | 3:05.12 | 16440 | 30326
3 | 6:44.27 | 5:47.28 | 30327 | 56379
4 | 12:31.55 | 4:24.62 | 56380 | 76241
5 | 16:56.42 | 2:53.00 | 76242 | 89216
6 | 19:49.42 | 7:01.35 | 89217 | 120826
7 | 26:51.02 | 3:56.68 | 120827 | 138594
8 | 30:47.70 | 6:05.42 | 138595 | 166011
9 | 36:53.37 | 5:36.58 | 166012 | 191269
10 | 42:30.20 | 4:51.65 | 191270 | 213159
11 | 47:22.10 | 5:01.35 | 213160 | 235769
12 | 52:23.45 | 4:08.67 | 235770 | 254436
13 | 56:32.37 | 3:55.38 | 254437 | 272099

Range status and errors

Selected range

Filename D:\CDRip for Johnny\Pantera – Far Beyond Driven (Japan, AMCY-670).wav

Peak level 99.9 %
Extraction speed 7.9 X
Range quality 100.0 %
Test CRC 168F6DD6
Copy CRC 168F6DD6
Copy OK

No errors occurred

AccurateRip summary

Track 1 accurately ripped (confidence 10) [A2A2E237] (AR v2)
Track 2 accurately ripped (confidence 10) [1287794F] (AR v2)
Track 3 accurately ripped (confidence 10) [090B2F2C] (AR v2)
Track 4 accurately ripped (confidence 10) [CCD6C710] (AR v2)
Track 5 accurately ripped (confidence 10) [B837FED0] (AR v2)
Track 6 accurately ripped (confidence 10) [AD10D67E] (AR v2)
Track 7 accurately ripped (confidence 10) [E7A22EB4] (AR v2)
Track 8 accurately ripped (confidence 10) [4CBCE5B3] (AR v2)
Track 9 accurately ripped (confidence 10) [CDC50D33] (AR v2)
Track 10 accurately ripped (confidence 10) [B7EF406A] (AR v2)
Track 11 accurately ripped (confidence 10) [3F403553] (AR v2)
Track 12 accurately ripped (confidence 10) [6B944690] (AR v2)
Track 13 accurately ripped (confidence 11) [99D265A0] (AR v2)

All tracks accurately ripped

End of status report

—- CUETools DB Plugin V2.1.6

[CTDB TOCID: ypooJBxaQHmMiDbB7MzHfSIvxEQ-] found
Submit result: already submitted
Track | CTDB Status
1 | (30/34) Accurately ripped
2 | (30/34) Accurately ripped
3 | (30/34) Accurately ripped
4 | (30/34) Accurately ripped
5 | (30/34) Accurately ripped
6 | (29/34) Accurately ripped
7 | (30/34) Accurately ripped
8 | (30/34) Accurately ripped
9 | (30/34) Accurately ripped
10 | (28/34) Accurately ripped
11 | (29/34) Accurately ripped
12 | (30/34) Accurately ripped
13 | (30/34) Accurately ripped

==== Log checksum 34E19EAD37348F3011EBEADEDBCB41191B3CEB80B3F8856B6D70234BD5765CCF ====

REM GENRE Groove / Thrash Metal
REM DATE 1994
REM DISCID A10E2C0D
REM COMMENT “ExactAudioCopy v1.1”
PERFORMER “Pantera”
TITLE “Far Beyond Driven (AMCY-670)”
FILE “Pantera – Far Beyond Driven (AMCY-670).flac” WAVE
TRACK 01 AUDIO
TITLE “Strength Beyond Strength”
PERFORMER “Pantera”
INDEX 01 00:00:00
TRACK 02 AUDIO
TITLE “Becoming”
PERFORMER “Pantera”
INDEX 01 03:39:15
TRACK 03 AUDIO
TITLE “5 Minutes Alone”
PERFORMER “Pantera”
INDEX 01 06:44:27
TRACK 04 AUDIO
TITLE “I’m Broken”
PERFORMER “Pantera”
INDEX 01 12:31:55
TRACK 05 AUDIO
TITLE “Good Friends And A Bottle Of Pills”
PERFORMER “Pantera”
INDEX 01 16:56:42
TRACK 06 AUDIO
TITLE “Hard Lines, Sunken Cheeks”
PERFORMER “Pantera”
INDEX 01 19:49:42
TRACK 07 AUDIO
TITLE “Slaughtered”
PERFORMER “Pantera”
INDEX 01 26:51:02
TRACK 08 AUDIO
TITLE “25 Years”
PERFORMER “Pantera”
INDEX 01 30:47:70
TRACK 09 AUDIO
TITLE “Shedding Skin”
PERFORMER “Pantera”
INDEX 01 36:53:37
TRACK 10 AUDIO
TITLE “Use My Third Arm”
PERFORMER “Pantera”
INDEX 01 42:30:20
TRACK 11 AUDIO
TITLE “Throes Of Rejection”
PERFORMER “Pantera”
INDEX 01 47:22:10
TRACK 12 AUDIO
TITLE “Planet Caravan”
PERFORMER “Pantera”
INDEX 01 52:23:45
TRACK 13 AUDIO
TITLE “The Badge (Bonus track)”
PERFORMER “Pantera”
INDEX 00 56:27:37
INDEX 01 56:32:37


Spread the Download

Leave a Reply

Your email address will not be published. Required fields are marked *

Enter the text from the image below
 

This site uses Akismet to reduce spam. Learn how your comment data is processed.