Pantera – Cowboys From Hell




Artist: Pantera
Year: 1990
Genre: Metal
Notes: Discogs
Add. Notes:
Cover incl.: Yes
Encoder: FLAC
Bitrate: ~1000 kBit/s (44.1 kHz/16 Bit/s)
Log & Cue incl.: Yes
Size: 433,63 MB
Password: “slam” (without ” “)


All Downloads/Hosters are compatible

Download 1
Turbobit.net
Rapidgator.net
KatFile.com
UploadRar.com
Download 2
Turbobit.net
Rapidgator.net
KatFile.com
UploadRar.com

Tracklist:

1 - Cowboys From Hell - 4:07
2 - Primal Concrete Sledge - 2:13
3 - Psycho Holiday - 5:19
4 - Heresy - 4:46
5 - Cemetery Gates - 7:02
6 - Domination - 5:04
7 - Shattered - 3:21
8 - Clash With Reality - 5:16
9 - Medicine Man - 5:14
10 - Message In Blood - 5:10
11 - The Sleep - 5:47
12 - The Art Of Shredding - 4:20

EAC-Log, CUE-Sheed & NFO:

Click to open spoiler
Exact Audio Copy V1.1 from 23. June 2015

EAC extraction logfile from 2. February 2017, 22:03

Pantera / Cowboys from Hell

Used drive : ASUS DRW-1612BL Adapter: 2 ID: 0

Read mode : Secure
Utilize accurate stream : Yes
Defeat audio cache : Yes
Make use of C2 pointers : No

Read offset correction : 6
Overread into Lead-In and Lead-Out : No
Fill up missing offset samples with silence : Yes
Delete leading and trailing silent blocks : No
Null samples used in CRC calculations : Yes
Used interface : Installed external ASPI interface

Used output format : User Defined Encoder
Selected bitrate : 128 kBit/s
Quality : High
Add ID3 tag : No
Command line compressor : C:\Program Files\EAC\Exact Audio Copy\Flac\flac.exe
Additional command line options : -V -8 -T “Date=%year%” -T “Genre=%genre%” %source%

TOC of the extracted CD

Track | Start | Length | Start sector | End sector
———————————————————
1 | 0:00.00 | 4:07.08 | 0 | 18532
2 | 4:07.08 | 2:13.05 | 18533 | 28512
3 | 6:20.13 | 5:19.20 | 28513 | 52457
4 | 11:39.33 | 4:46.65 | 52458 | 73972
5 | 16:26.23 | 7:02.62 | 73973 | 105684
6 | 23:29.10 | 5:04.00 | 105685 | 128484
7 | 28:33.10 | 3:21.70 | 128485 | 143629
8 | 31:55.05 | 5:16.43 | 143630 | 167372
9 | 37:11.48 | 5:14.60 | 167373 | 190982
10 | 42:26.33 | 5:10.05 | 190983 | 214237
11 | 47:36.38 | 5:47.00 | 214238 | 240262
12 | 53:23.38 | 4:20.30 | 240263 | 259792

Range status and errors

Selected range

Filename C:\darkbrides\Pantera – Cowboys from Hell.wav

Peak level 89.1 %
Extraction speed 8.1 X
Range quality 100.0 %
Test CRC 42011098
Copy CRC 42011098
Copy OK

No errors occurred

AccurateRip summary

Track 1 accurately ripped (confidence 81) [CEAFB105] (AR v2)
Track 2 accurately ripped (confidence 81) [6DC8CCCD] (AR v2)
Track 3 accurately ripped (confidence 81) [8CD8C771] (AR v2)
Track 4 accurately ripped (confidence 81) [EC1FE0B8] (AR v2)
Track 5 accurately ripped (confidence 81) [1C0B09B3] (AR v2)
Track 6 accurately ripped (confidence 81) [F44DD426] (AR v2)
Track 7 accurately ripped (confidence 80) [F983CF97] (AR v2)
Track 8 accurately ripped (confidence 81) [569A3981] (AR v2)
Track 9 accurately ripped (confidence 81) [693A2D7C] (AR v2)
Track 10 accurately ripped (confidence 81) [092A2C74] (AR v2)
Track 11 accurately ripped (confidence 81) [889F0A42] (AR v2)
Track 12 accurately ripped (confidence 79) [EF4178F5] (AR v2)

All tracks accurately ripped

End of status report

—- CUETools DB Plugin V2.1.6

[CTDB TOCID: 84cesTQf3Uql0j4SUL7eda31jkI-] found
Submit result: already submitted
Track | CTDB Status
1 | (653/660) Accurately ripped
2 | (658/660) Accurately ripped
3 | (654/660) Accurately ripped
4 | (654/660) Accurately ripped
5 | (657/660) Accurately ripped
6 | (656/660) Accurately ripped
7 | (657/660) Accurately ripped
8 | (655/660) Accurately ripped
9 | (655/660) Accurately ripped
10 | (654/660) Accurately ripped
11 | (653/660) Accurately ripped
12 | (651/660) Accurately ripped

==== Log checksum B2AA1D2F3B48A268B557B2B30E8CC7B35588173F5E4E376FE73E968E83F9A995 ====

REM GENRE Groove / Thrash Metal
REM DATE 1990/1994
REM DISCID A40D870C
REM COMMENT “ExactAudioCopy v1.1”
CATALOG 7567913720201
PERFORMER “Pantera”
TITLE “Cowboys From Hell (7567-91372-2)”
FILE “Pantera – Cowboys From Hell (7567-91372-2).flac” WAVE
TRACK 01 AUDIO
TITLE “Cowboys From Hell”
PERFORMER “Pantera”
INDEX 01 00:00:00
TRACK 02 AUDIO
TITLE “Primal Concrete Sledge”
PERFORMER “Pantera”
INDEX 01 04:07:08
TRACK 03 AUDIO
TITLE “Psycho Holiday”
PERFORMER “Pantera”
INDEX 01 06:20:13
TRACK 04 AUDIO
TITLE “Heresy”
PERFORMER “Pantera”
INDEX 01 11:39:33
TRACK 05 AUDIO
TITLE “Cemetery Gates”
PERFORMER “Pantera”
INDEX 01 16:26:23
TRACK 06 AUDIO
TITLE “Domination”
PERFORMER “Pantera”
INDEX 01 23:29:10
TRACK 07 AUDIO
TITLE “Shattered”
PERFORMER “Pantera”
INDEX 00 28:32:28
INDEX 01 28:33:10
TRACK 08 AUDIO
TITLE “Clash With Reality”
PERFORMER “Pantera”
INDEX 01 31:55:05
TRACK 09 AUDIO
TITLE “Medicine Man”
PERFORMER “Pantera”
INDEX 01 37:11:48
TRACK 10 AUDIO
TITLE “Message In Blood”
PERFORMER “Pantera”
INDEX 01 42:26:33
TRACK 11 AUDIO
TITLE “The Sleep”
PERFORMER “Pantera”
INDEX 01 47:36:38
TRACK 12 AUDIO
TITLE “The Art Of Shredding”
PERFORMER “Pantera”
INDEX 01 53:23:38


Leave a Reply

Your email address will not be published. Required fields are marked *

This site uses Akismet to reduce spam. Learn how your comment data is processed.