Pantera – Cowboys From Hell (Japanese Edition)




[Total: 0    Average: 0/5]

Artist: Pantera
Year: 1990
Genre: Metal
Notes: Discogs
Add. Notes: Japanese Edition
Cover incl.: Yes
Encoder: FLAC
Bitrate: ~1100 kBit/s (44.1 kHz/16 Bit/s)
Log & Cue incl.: Yes
Size: 503,31 MB
Password: “slam” (without ” “)


All Downloads/Hosters are compatible

Download 1
Share-online.biz
Rapidgator.net
KatFile.com
UploadRar.com
Download 2
Share-online.biz
Rapidgator.net
KatFile.com
UploadRar.com

Tracklist:

1 - Cowboys From Hell - 4:06
2 - Primal Concrete Sledge - 2:13
3 - Psycho Holiday - 5:19
4 - Heresy - 4:46
5 - Cemetery Gates - 7:02
6 - Domination - 5:04
7 - Shattered - 3:22
8 - Clash With Reality - 5:16
9 - Medicine Man - 5:15
10 - Message In Blood - 5:09
11 - The Sleep - 5:47
12 - The Art Of Shredding - 4:20

EAC-Log, CUE-Sheed & NFO:

Click to open spoiler
Exact Audio Copy V1.1 from 23. June 2015

EAC extraction logfile from 12. January 2016, 20:28

Pantera / Cowboys From Hell (Japan, AMCY-140)

Used drive : PIONEER DVD-RW DVR-219L Adapter: 1 ID: 1

Read mode : Secure
Utilize accurate stream : Yes
Defeat audio cache : Yes
Make use of C2 pointers : No

Read offset correction : 6
Overread into Lead-In and Lead-Out : No
Fill up missing offset samples with silence : Yes
Delete leading and trailing silent blocks : No
Null samples used in CRC calculations : Yes
Used interface : Native Win32 interface for Win NT & 2000

Used output format : Internal WAV Routines
Sample format : 44.100 Hz; 16 Bit; Stereo

TOC of the extracted CD

Track | Start | Length | Start sector | End sector
———————————————————
1 | 0:00.00 | 4:06.57 | 0 | 18506
2 | 4:06.57 | 2:13.15 | 18507 | 28496
3 | 6:19.72 | 5:19.20 | 28497 | 52441
4 | 11:39.17 | 4:46.55 | 52442 | 73946
5 | 16:25.72 | 7:02.68 | 73947 | 105664
6 | 23:28.65 | 5:04.20 | 105665 | 128484
7 | 28:33.10 | 3:22.10 | 128485 | 143644
8 | 31:55.20 | 5:16.35 | 143645 | 167379
9 | 37:11.55 | 5:15.05 | 167380 | 191009
10 | 42:26.60 | 5:09.35 | 191010 | 214219
11 | 47:36.20 | 5:47.30 | 214220 | 240274
12 | 53:23.50 | 4:20.15 | 240275 | 259789

Range status and errors

Selected range

Filename D:\.by necromandus for avaxhome\Pantera – Cowboys From Hell (Japan, AMCY-140).wav

Peak level 99.9 %
Extraction speed 7.2 X
Range quality 100.0 %
Test CRC C4A5FF1C
Copy CRC C4A5FF1C
Copy OK

No errors occurred

AccurateRip summary

Track 1 accurately ripped (confidence 7) [0A08C276] (AR v2)
Track 2 accurately ripped (confidence 7) [E8F1FFCA] (AR v2)
Track 3 accurately ripped (confidence 7) [FF2964DD] (AR v2)
Track 4 accurately ripped (confidence 7) [4707A199] (AR v2)
Track 5 accurately ripped (confidence 7) [BEDA0920] (AR v2)
Track 6 accurately ripped (confidence 7) [BBB45077] (AR v2)
Track 7 accurately ripped (confidence 7) [719EAAB2] (AR v2)
Track 8 accurately ripped (confidence 7) [24CC3B98] (AR v2)
Track 9 accurately ripped (confidence 7) [ECA2C4E4] (AR v2)
Track 10 accurately ripped (confidence 7) [475158E8] (AR v2)
Track 11 accurately ripped (confidence 7) [1FC70668] (AR v2)
Track 12 accurately ripped (confidence 7) [7645E088] (AR v2)

All tracks accurately ripped

End of status report

—- CUETools DB Plugin V2.1.6

[CTDB TOCID: ex5p76A5N8lNdgbEhtC5InWFN1w-] found
Submit result: ex5p76A5N8lNdgbEhtC5InWFN1w- has been confirmed
Track | CTDB Status
1 | (29/29) Accurately ripped
2 | (29/29) Accurately ripped
3 | (29/29) Accurately ripped
4 | (28/29) Accurately ripped
5 | (29/29) Accurately ripped
6 | (29/29) Accurately ripped
7 | (29/29) Accurately ripped
8 | (28/29) Accurately ripped
9 | (29/29) Accurately ripped
10 | (28/29) Accurately ripped
11 | (28/29) Accurately ripped
12 | (29/29) Accurately ripped

==== Log checksum F7C989D3F62613CF2181617B1599FF432CBCA3446EE5EB3055B1D140C471F0D9 ====

REM GENRE Groove / Thrash Metal
REM DATE 1990
REM DISCID A00D870C
REM COMMENT “ExactAudioCopy v1.1”
PERFORMER “Pantera”
TITLE “Cowboys From Hell (AMCY-140)”
FILE “Pantera – Cowboys From Hell (AMCY-140).flac” WAVE
TRACK 01 AUDIO
TITLE “Cowboys From Hell”
PERFORMER “Pantera”
INDEX 01 00:00:00
TRACK 02 AUDIO
TITLE “Primal Concrete Sledge”
PERFORMER “Pantera”
INDEX 01 04:06:57
TRACK 03 AUDIO
TITLE “Psycho Holiday”
PERFORMER “Pantera”
INDEX 01 06:19:72
TRACK 04 AUDIO
TITLE “Heresy”
PERFORMER “Pantera”
INDEX 01 11:39:17
TRACK 05 AUDIO
TITLE “Cemetery Gates”
PERFORMER “Pantera”
INDEX 01 16:25:72
TRACK 06 AUDIO
TITLE “Domination”
PERFORMER “Pantera”
INDEX 01 23:28:65
TRACK 07 AUDIO
TITLE “Shattered”
PERFORMER “Pantera”
INDEX 01 28:33:10
TRACK 08 AUDIO
TITLE “Clash With Reality”
PERFORMER “Pantera”
INDEX 01 31:55:20
TRACK 09 AUDIO
TITLE “Medicine Man”
PERFORMER “Pantera”
INDEX 01 37:11:55
TRACK 10 AUDIO
TITLE “Message In Blood”
PERFORMER “Pantera”
INDEX 01 42:26:60
TRACK 11 AUDIO
TITLE “The Sleep”
PERFORMER “Pantera”
INDEX 01 47:36:20
TRACK 12 AUDIO
TITLE “The Art Of Shredding”
PERFORMER “Pantera”
INDEX 01 53:23:50


Spread the Download

Leave a Reply

Your email address will not be published. Required fields are marked *

Enter the text from the image below
 

This site uses Akismet to reduce spam. Learn how your comment data is processed.