Ozzy Osbourne – Scream




Artist: Ozzy Osbourne
Year: 2010
Genre: Rock
Notes: Discogs
Add. Notes:
Encoder: FLAC
Bitrate: ~1000 kBit/s (VBR)
Size: 435,25 MB
Password: “slam” (without ” “)


Tracklist:

01. Let It Die[6:06] 
02. Let Me Hear You Scream[3:26] 
03. Soul Sucker[4:35] 
04. Life Won't Wait[5:07] 
05. Diggin' Me Down[6:04] 
06. Crucify[3:30] 
07. Fearless[3:42] 
08. Time[5:31] 
09. I Want It More[5:37] 
10. Latimer's Mercy[4:27] 
11. I Love You All[1:02] 
12. Hand of the Enemy[3:42] 
13. One More Time[3:08] 
14. Jump the Moon[2:53]

Click to open spoiler
foobar2000 1.4 / Замер динамического диапазона (DR) 1.1.1
Дата отчёта: 2018-11-07 08:26:54

——————————————————————————–
Анализ: Ozzy Osbourne / Scream
——————————————————————————–

DR Пики RMS Продолжительность трека
——————————————————————————–
DR4 -0.51 дБ -5.58 дБ 6:06 01-Let It Die
DR5 -0.48 дБ -5.98 дБ 3:26 02-Let Me Hear You Scream
DR4 -0.52 дБ -4.89 дБ 4:35 03-Soul Sucker
DR4 -0.55 дБ -6.65 дБ 5:07 04-Life Won’t Wait
DR4 -0.52 дБ -6.54 дБ 6:04 05-Diggin’ Me Down
DR4 -0.56 дБ -6.47 дБ 3:30 06-Crucify
DR4 -0.50 дБ -5.81 дБ 3:42 07-Fearless
DR4 -0.49 дБ -6.47 дБ 5:31 08-Time
DR4 -0.52 дБ -5.67 дБ 5:37 09-I Want It More
DR4 -0.50 дБ -5.43 дБ 4:27 10-Latimer’s Mercy
DR7 -0.95 дБ -10.56 дБ 1:02 11-I Love You All
DR4 -0.44 дБ -5.77 дБ 3:42 12-Hand of the Enemy
DR5 -0.48 дБ -6.06 дБ 3:08 13-One More Time
DR5 -0.57 дБ -6.33 дБ 2:53 14-Jump the Moon
——————————————————————————–

Количество треков: 14
Реальные значения DR: DR4

Частота: 44100 Гц
Каналов: 2
Разрядность: 24
Битрейт: 1729 кбит/с
Кодек: FLAC
================================================================================

Leave a Reply

Your email address will not be published. Required fields are marked *

This site uses Akismet to reduce spam. Learn how your comment data is processed.