Ozzy Osbourne – Ordinary Man




No Cover available

Artist: Ozzy Osbourne
Year: 2020
Genre: Metal
Notes: Discogs
Add. Notes:
Watch Songs on: YouTube
Cover incl.: Yes
Encoder: FLAC
Bitrate: ~900 kBit/s (44.1 kHz/16 Bit/s)
Log & Cue incl.: Yes/Yes
Size: 351,7 MB
Password: “slam” (without ” “)


All Downloads/Hosters are compatible

Download 1
KatFile.com
Turbobit.net
Rapidgator.net
FileFactory.com
Download 2
KatFile.com
Turbobit.net
Rapidgator.net
FileFactory.com

Tracklist:

01. Straight To Hell (3:46)
02. All My Life (4:18)
03. Goodbye (5:34)
04. Ordinary Man (Feat. Elton John) (5:02)
05. Under The Graveyard (4:57)
06. Eat Me (4:19)
07. Today Is The End (4:06)
08. Scary Little Green Men (4:21)
09. Holy For Tonight (4:52)
10. It's A Raid (Feat. Post Malone) (4:21)
11. Take What You Want (Feat. Post Malone & Travi$ 
Scott) (3:50)

EAC-Log, CUE-Sheed & NFO:

Click to open spoiler
CUE Corrector v. 8.3.6 / b. 963 (Feb. 12, 2020)
————————————————————————————————————————————————————————————————————————
Ozzy Osbourne / Ordinary Man

Folder: Ozzy Osbourne – 2020 – Ordinary Man [CD-FLAC]
Audio files:
01 Straight To Hell.flac [03:45.693; FLAC • 1021 kbps • 16 bit \ 44100 Hz • stereo; 27,49 MB (28 824 555 B)]
02 All My Life.flac [04:18.280; FLAC • 984 kbps • 16 bit \ 44100 Hz • stereo; 30,31 MB (31 779 638 B)]
03 Goodbye.flac [05:34.347; FLAC • 1001 kbps • 16 bit \ 44100 Hz • stereo; 39,93 MB (41 870 104 B)]
04 Ordinary Man (Feat. Elton John).flac [05:01.720; FLAC • 909 kbps • 16 bit \ 44100 Hz • stereo; 32,71 MB (34 302 660 B)]
05 Under The Graveyard.flac [04:57.453; FLAC • 994 kbps • 16 bit \ 44100 Hz • stereo; 35,27 MB (36 985 546 B)]
06 Eat Me.flac [04:19.013; FLAC • 948 kbps • 16 bit \ 44100 Hz • stereo; 29,30 MB (30 720 184 B)]
07 Today Is The End.flac [04:06.427; FLAC • 1022 kbps • 16 bit \ 44100 Hz • stereo; 30,04 MB (31 498 574 B)]
08 Scary Little Green Men.flac [04:20.960; FLAC • 937 kbps • 16 bit \ 44100 Hz • stereo; 29,16 MB (30 575 912 B)]
09 Holy For Tonight.flac [04:52.120; FLAC • 946 kbps • 16 bit \ 44100 Hz • stereo; 32,98 MB (34 579 128 B)]
10 It’s A Raid (Feat. Post Malone).flac [04:20.747; FLAC • 1106 kbps • 16 bit \ 44100 Hz • stereo; 34,39 MB (36 060 014 B)]
11 Take What You Want (Feat. Post Malone & Travi$ Scott).flac [03:49.787; FLAC • 960 kbps • 16 bit \ 44100 Hz • stereo; 26,31 MB (27 589 481 B)]

Accuracy: -m3

File 01 Straight To Hell – 100% CDDA [03:45:52]
File 02 All My Life – 100% CDDA [04:18:21]
File 03 Goodbye – 100% CDDA [05:34:26]
File 04 Ordinary Man (Feat. Elton John) – 99% CDDA [05:01:54]
File 05 Under The Graveyard – 100% CDDA [04:57:34]
File 06 Eat Me – 100% CDDA [04:19:01]
File 07 Today Is The End – 100% CDDA [04:06:32]
File 08 Scary Little Green Men – 100% CDDA [04:20:72]
File 09 Holy For Tonight – 100% CDDA [04:52:09]
File 10 It’s A Raid (Feat. Post Malone) – 100% CDDA [04:20:56]
File 11 Take What You Want (Feat. Post Malone & Travi$ Scott) – 100% CDDA [03:49:59]
————— Summary: —————
These tracks looks like CDDA with probability 100%.
————————————————————————————————————————————————————————————————————————

ANALYZER:
auCDtect: CD records authenticity detector, version 0.8.2
Copyright (c) 2004 Oleg Berngardt. All rights reserved.
Copyright (c) 2004 Alexander Djourik. All rights reserved.

Time elapsed: 32.8 s
Log created at February 13, 2020 17:12:44

=== 81F6503588F975D60FEFFD14414CC540FAD3FBAD678367F7CA6DB3515FC2938B ===

[CUETools log; Date: 16.02.2020 22:57:06; Version: 2.1.6]
[CTDB TOCID: qL8FvmoRxBkK7aj3DwqfZ2Lw6nA-] found.
Track | CTDB Status
1 | (1/2) Accurately ripped, or (1/2) differs in 13 samples @00:21:00
2 | (2/2) Accurately ripped
3 | (2/2) Accurately ripped
4 | (2/2) Accurately ripped
5 | (2/2) Accurately ripped
6 | (2/2) Accurately ripped
7 | (2/2) Accurately ripped
8 | (2/2) Accurately ripped
9 | (2/2) Accurately ripped
10 | (2/2) Accurately ripped
11 | (2/2) Accurately ripped
[AccurateRip ID: 0014a1b1-00b31f23-9c0b960b] disk not present in database.

Track Peak [ CRC32 ] [W/O NULL]
— 100,0 [DA740FD5] [E25F1456]
01 97,6 [AC96FCCD] [032DDA9E]
02 100,0 [6DF11ACA] [208DD228]
03 98,8 [15765588] [FF4537E7]
04 100,0 [D213E610] [C82AB10D]
05 100,0 [DA9A1EC2] [04E7821C]
06 100,0 [153230E4] [C1DD9855]
07 100,0 [F79BF245] [7F832BD8]
08 100,0 [CE40C3CB] [597F9BE8]
09 100,0 [ED7A5DED] [7DE9EB29]
10 100,0 [D7CF8C61] [C5AE0874]
11 95,9 [49F9E7DD] [74BB12EE]

foobar2000 1.5.1 / Замер динамического диапазона (DR) 1.1.1
Дата отчёта: 2020-02-13 17:17:36

——————————————————————————–
Анализ: Ozzy Osbourne / Ordinary Man
——————————————————————————–

DR Пики RMS Продолжительность трека
——————————————————————————–
DR3 -0.20 дБ -5.44 дБ 3:46 01-Straight To Hell
DR4 0.00 дБ -5.79 дБ 4:18 02-All My Life
DR3 -0.10 дБ -4.91 дБ 5:34 03-Goodbye
DR4 0.00 дБ -6.59 дБ 5:02 04-Ordinary Man (Feat. Elton John)
DR3 0.00 дБ -4.95 дБ 4:57 05-Under The Graveyard
DR4 0.00 дБ -5.76 дБ 4:19 06-Eat Me
DR3 0.00 дБ -5.28 дБ 4:06 07-Today Is The End
DR3 0.00 дБ -5.60 дБ 4:21 08-Scary Little Green Men
DR4 0.00 дБ -6.15 дБ 4:52 09-Holy For Tonight
DR2 0.00 дБ -3.66 дБ 4:21 10-It’s A Raid (Feat. Post Malone)
DR3 -0.36 дБ -4.96 дБ 3:50 11-Take What You Want (Feat. Post Malone & Travi$ Scott)
——————————————————————————–

Количество треков: 11
Реальные значения DR: DR3

Частота: 44100 Гц
Каналов: 2
Разрядность: 16
Битрейт: 960 кбит/с
Кодек: FLAC
================================================================================


Leave a Reply

Your email address will not be published. Required fields are marked *

Enter the text from the image below
 

This site uses Akismet to reduce spam. Learn how your comment data is processed.