Ozzy Osbourne – Black Rain




Artist: Ozzy Osbourne
Year: 2007
Genre: Rock
Notes: Discogs
Add. Notes: Bonus Track Version
Encoder: FLAC
Bitrate: ~1000 kBit/s (VBR)
Size: 405,31 MB
Password: “slam” (without ” “)


Tracklist:

1	Not Going Away	
2	I Don't Wanna Stop	
3	Black Rain	
4	Lay Your World On Me	
5	The Almighty Dollar	
6	11 Silver	
7	Civilize The Universe	
8	Here For You	
9	Countdown's Begun	
10	Trap Door	
11	I Can't Save You	
12	Not Going Away

Click to open spoiler
foobar2000 1.4 / Замер динамического диапазона (DR) 1.1.1
Дата отчёта: 2018-11-07 08:28:26

——————————————————————————–
Анализ: Ozzy Osbourne / Black Rain (Bonus Track Version)
——————————————————————————–

DR Пики RMS Продолжительность трека
——————————————————————————–
DR5 -0.52 дБ -7.12 дБ 4:32 01-Not Going Away
DR5 -0.52 дБ -6.84 дБ 4:00 02-I Don’t Wanna Stop
DR5 -0.51 дБ -7.10 дБ 4:42 03-Black Rain
DR6 -0.50 дБ -7.26 дБ 4:16 04-Lay Your World on Me
DR5 -0.52 дБ -7.73 дБ 6:57 05-The Almighty Dollar
DR5 -0.51 дБ -6.79 дБ 3:43 06-11 Silver
DR5 -0.50 дБ -7.17 дБ 4:43 07-Civilize the Universe
DR6 -0.60 дБ -8.17 дБ 4:37 08-Here for You
DR5 -0.63 дБ -7.11 дБ 4:54 09-Countdown’s Begun
DR5 -0.59 дБ -6.39 дБ 4:08 10-Trap Door
DR6 -0.72 дБ -7.18 дБ 3:44 11-I Don’t Wanna Stop (Live)
DR6 -0.63 дБ -8.06 дБ 4:37 12-Not Going Away (Live)
——————————————————————————–

Количество треков: 12
Реальные значения DR: DR5

Частота: 44100 Гц
Каналов: 2
Разрядность: 24
Битрейт: 1746 кбит/с
Кодек: FLAC
================================================================================

Leave a Reply

Your email address will not be published. Required fields are marked *

Enter the text from the image below
 

This site uses Akismet to reduce spam. Learn how your comment data is processed.