Oxo 86 – Rien Ne Va Plus (Limited Edition)




Artist: Oxo 86
Year: 2018
Genre: Punk
Notes: Discogs
Add. Notes: Limited Edition
Cover incl.: Yes
Encoder: FLAC
Bitrate: ~1000 kBit/s (44.1 kHz/16 Bit/s)
Log & Cue incl.: Yes
Size: 338,61 MB
Password: “slam” (without ” “)


All Downloads/Hosters are compatible

Download 1
Turbobit.net
Rapidgator.net
UploadEver.com
KatFile.com
UsersDrive.com
Download 2
Turbobit.net
Rapidgator.net
UploadEver.com
KatFile.com
UsersDrive.com
Download 3
Turbobit.net
Rapidgator.net
UploadEver.com
KatFile.com
UsersDrive.com

Tracklist:

1. Rien Ne Va Plus
2. Auf Gehts 
3. Schade
4. Festival
5. Spätverkauf
6. Zeit Die Nie Vergeht
7. Ein Guter Tropfen
8. Anfang Vom Ende
9. Alles Im Eimer 
10. Kaiserfahrt
11. Unsere Stadt 
12. Wie Vampire

EAC-Log, CUE-Sheed & NFO:

Click to open spoiler
Exact Audio Copy V1.3 from 2. September 2016

EAC extraction logfile from 7. November 2018, 20:18

Oxo 86 / Rien Ne Va Plus

Used drive : PIONEER DVD-RW DVR-221L Adapter: 1 ID: 1

Read mode : Secure
Utilize accurate stream : Yes
Defeat audio cache : Yes
Make use of C2 pointers : No

Read offset correction : 6
Overread into Lead-In and Lead-Out : No
Fill up missing offset samples with silence : Yes
Delete leading and trailing silent blocks : No
Null samples used in CRC calculations : Yes
Used interface : Native Win32 interface for Win NT & 2000

Used output format : User Defined Encoder
Selected bitrate : 1024 kBit/s
Quality : High
Add ID3 tag : No
Command line compressor : C:\Program Files (x86)\Exact Audio Copy\Flac\flac.exe
Additional command line options : -V -8 -T “Date=%year%” -T “Genre=%genre%” %source%

TOC of the extracted CD

Track | Start | Length | Start sector | End sector
———————————————————
1 | 0:00.00 | 3:52.08 | 0 | 17407
2 | 3:52.08 | 3:23.37 | 17408 | 32669
3 | 7:15.45 | 2:57.71 | 32670 | 46015
4 | 10:13.41 | 2:46.27 | 46016 | 58492
5 | 12:59.68 | 3:15.27 | 58493 | 73144
6 | 16:15.20 | 3:23.45 | 73145 | 88414
7 | 19:38.65 | 4:13.50 | 88415 | 107439
8 | 23:52.40 | 3:20.14 | 107440 | 122453
9 | 27:12.54 | 2:39.25 | 122454 | 134403
10 | 29:52.04 | 3:19.55 | 134404 | 149383
11 | 33:11.59 | 3:30.24 | 149384 | 165157
12 | 36:42.08 | 3:48.00 | 165158 | 182257

Range status and errors

Selected range

Filename D:\Mutineer\Oxo 86 – Rien Ne Va Plus\Oxo 86 – Rien Ne Va Plus.wav

Peak level 98.7 %
Extraction speed 4.4 X
Range quality 100.0 %
Test CRC 2FF56BD0
Copy CRC 2FF56BD0
Copy OK

No errors occurred

AccurateRip summary

Track 1 not present in database
Track 2 not present in database
Track 3 not present in database
Track 4 not present in database
Track 5 not present in database
Track 6 not present in database
Track 7 not present in database
Track 8 not present in database
Track 9 not present in database
Track 10 not present in database
Track 11 not present in database
Track 12 not present in database

None of the tracks are present in the AccurateRip database

End of status report

==== Log checksum 9C57F757684F7C2313D9068F36A4836BE88CBCF2A944D23511F01F819CA4FD38 ====

REM GENRE “Punk Rock”
REM DATE 2018
REM DISCID A3097E0C
REM COMMENT “ExactAudioCopy v1.3”
PERFORMER “Oxo 86”
TITLE “Rien Ne Va Plus”
REM COMPOSER “”
FILE “Oxo 86 – Rien Ne Va Plus.flac” WAVE
TRACK 01 AUDIO
TITLE “Rien Ne Va Plus”
PERFORMER ” ”
REM COMPOSER “”
INDEX 01 00:00:00
TRACK 02 AUDIO
TITLE “Auf Gehts”
PERFORMER ” ”
REM COMPOSER “”
INDEX 00 03:50:08
INDEX 01 03:52:08
TRACK 03 AUDIO
TITLE “Schade”
PERFORMER ” ”
REM COMPOSER “”
INDEX 00 07:13:45
INDEX 01 07:15:45
TRACK 04 AUDIO
TITLE “Festival”
PERFORMER ” ”
REM COMPOSER “”
INDEX 00 10:11:41
INDEX 01 10:13:41
TRACK 05 AUDIO
TITLE “Spatverkauf”
PERFORMER ” ”
REM COMPOSER “”
INDEX 00 12:57:68
INDEX 01 12:59:68
TRACK 06 AUDIO
TITLE “Zeit Die Nie Vergeht”
PERFORMER ” ”
REM COMPOSER “”
INDEX 00 16:13:20
INDEX 01 16:15:20
TRACK 07 AUDIO
TITLE “Ein Guter Tropfen”
PERFORMER ” ”
REM COMPOSER “”
INDEX 00 19:36:65
INDEX 01 19:38:65
TRACK 08 AUDIO
TITLE “Anfang Vom Ende”
PERFORMER ” ”
REM COMPOSER “”
INDEX 00 23:50:40
INDEX 01 23:52:40
INDEX 02 27:10:01
TRACK 09 AUDIO
TITLE “Alles Im Eimer”
PERFORMER ” ”
REM COMPOSER “”
INDEX 00 27:10:54
INDEX 01 27:12:54
TRACK 10 AUDIO
TITLE “Kaiserfahrt”
PERFORMER ” ”
REM COMPOSER “”
INDEX 00 29:50:04
INDEX 01 29:52:04
TRACK 11 AUDIO
TITLE “Unsere Stadt”
PERFORMER ” ”
REM COMPOSER “”
INDEX 00 33:09:59
INDEX 01 33:11:59
TRACK 12 AUDIO
TITLE “Wie Vampire”
PERFORMER ” ”
REM COMPOSER “”
INDEX 00 36:40:08
INDEX 01 36:42:08


Leave a Reply

Your email address will not be published. Required fields are marked *

Enter the text from the image below
 

This site uses Akismet to reduce spam. Learn how your comment data is processed.