Operation: Mindcrime – The Key




No Cover available


Artist: Operation: Mindcrime
Year: 2015
Genre: Metal
Notes: Discogs
Add. Notes:
Watch Songs on: YouTube
Cover incl.: Yes
Encoder: FLAC
Bitrate: ~900 kBit/s (44.1 kHz/16 Bit/s)
Log & Cue incl.: Yes/Yes
Size: 352,3 MB
Password: “slam” (without ” “)


All Downloads/Hosters are compatible

Download 1
KatFile.com
Turbobit.net
Rapidgator.net
FileFactory.com
Download 2
KatFile.com
Turbobit.net
Rapidgator.net
FileFactory.com

Tracklist:

1 Choices 3:38
2 Burn 3:48
3 Re-Inventing The Future 4:38
4 Ready To Fly 3:45
5 Discussions In A Smoke Filled Room 1:45
6 Life Or Death? 4:56
7 The Stranger 3:50
8 Hearing Voices 5:38
9 On Queue 4:51
10 An Ambush Of Sadness 1:42
11 Kicking In The Door 3:04
12 The Fall 6:24

EAC-Log, CUE-Sheed & NFO:

Click to open spoiler
Exact Audio Copy V1.1 from 23. June 2015

EAC extraction logfile from 15. March 2016, 21:51

Operation: Mindcrime / The Key

Used drive : ASUS DRW-24B1ST Adapter: 1 ID: 1

Read mode : Secure
Utilize accurate stream : Yes
Defeat audio cache : Yes
Make use of C2 pointers : No

Read offset correction : 6
Overread into Lead-In and Lead-Out : No
Fill up missing offset samples with silence : Yes
Delete leading and trailing silent blocks : No
Null samples used in CRC calculations : Yes
Used interface : Native Win32 interface for Win NT & 2000

Used output format : User Defined Encoder
Selected bitrate : 1024 kBit/s
Quality : High
Add ID3 tag : No
Command line compressor : C:\Program Files (x86)\Exact Audio Copy\Flac\flac.exe
Additional command line options : -V -8 -T “Date=%year%” -T “Genre=%genre%” %source%

TOC of the extracted CD

Track | Start | Length | Start sector | End sector
———————————————————
1 | 0:00.00 | 3:37.50 | 0 | 16324
2 | 3:37.50 | 3:47.57 | 16325 | 33406
3 | 7:25.32 | 4:38.07 | 33407 | 54263
4 | 12:03.39 | 3:44.53 | 54264 | 71116
5 | 15:48.17 | 1:45.29 | 71117 | 79020
6 | 17:33.46 | 4:56.01 | 79021 | 101221
7 | 22:29.47 | 3:49.45 | 101222 | 118441
8 | 26:19.17 | 5:38.02 | 118442 | 143793
9 | 31:57.19 | 4:51.18 | 143794 | 165636
10 | 36:48.37 | 1:41.72 | 165637 | 173283
11 | 38:30.34 | 3:04.31 | 173284 | 187114
12 | 41:34.65 | 6:23.41 | 187115 | 215880

Range status and errors

Selected range

Filename E:\Torrent\Queensryche\Operation Mindcrime – The Key (2015) (Frontiers Records, FR CD 704, Italy)\Operation Mindcrime – The Key.wav

Peak level 100.0 %
Extraction speed 2.9 X
Range quality 99.9 %
Test CRC 9EF8FBE8
Copy CRC 9EF8FBE8
Copy OK

No errors occurred

AccurateRip summary

Track 1 accurately ripped (confidence 5) [C594B47C] (AR v2)
Track 2 accurately ripped (confidence 5) [170F035C] (AR v2)
Track 3 accurately ripped (confidence 5) [F5B4C523] (AR v2)
Track 4 accurately ripped (confidence 5) [C2D1594A] (AR v2)
Track 5 accurately ripped (confidence 5) [2629854B] (AR v2)
Track 6 accurately ripped (confidence 5) [E16D4855] (AR v2)
Track 7 accurately ripped (confidence 5) [F15942C2] (AR v2)
Track 8 accurately ripped (confidence 5) [68208CD0] (AR v2)
Track 9 accurately ripped (confidence 5) [07B5AD19] (AR v2)
Track 10 accurately ripped (confidence 5) [022CC27A] (AR v2)
Track 11 accurately ripped (confidence 5) [6CFE3333] (AR v2)
Track 12 accurately ripped (confidence 5) [FF167B2D] (AR v2)

All tracks accurately ripped

End of status report

—- CUETools DB Plugin V2.1.6

[CTDB TOCID: V3GcKpKnSyJP83xLGCyCqXvY46Y-] found
Submit result: V3GcKpKnSyJP83xLGCyCqXvY46Y- has been confirmed
Track | CTDB Status
1 | (23/23) Accurately ripped
2 | (23/23) Accurately ripped
3 | (23/23) Accurately ripped
4 | (23/23) Accurately ripped
5 | (23/23) Accurately ripped
6 | (23/23) Accurately ripped
7 | (23/23) Accurately ripped
8 | (23/23) Accurately ripped
9 | (23/23) Accurately ripped
10 | (23/23) Accurately ripped
11 | (23/23) Accurately ripped
12 | (23/23) Accurately ripped

==== Log checksum 691C1E0AE0EC0C54B6CC28ACFA0D30774681E14238D506346E4D2BCDB3EB85C3 ====

REM GENRE “Heavy Metal”
REM DATE 2015
REM DISCID 930B3E0C
REM COMMENT “ExactAudioCopy v1.1”
PERFORMER “Operation: Mindcrime”
TITLE “The Key (FR CD 704)”
FILE “Operation Mindcrime – The Key (FR CD 704).flac” WAVE
TRACK 01 AUDIO
TITLE “Choices”
PERFORMER “Operation: Mindcrime”
INDEX 01 00:00:00
TRACK 02 AUDIO
TITLE “Burn”
PERFORMER “Operation: Mindcrime”
INDEX 01 03:37:50
TRACK 03 AUDIO
TITLE “Re-Inventing The Future”
PERFORMER “Operation: Mindcrime”
INDEX 01 07:25:32
TRACK 04 AUDIO
TITLE “Ready To Fly”
PERFORMER “Operation: Mindcrime”
INDEX 01 12:03:39
TRACK 05 AUDIO
TITLE “Discussions In A Smoke Filled Room”
PERFORMER “Operation: Mindcrime”
INDEX 01 15:48:17
TRACK 06 AUDIO
TITLE “Life Or Death?”
PERFORMER “Operation: Mindcrime”
INDEX 01 17:33:46
TRACK 07 AUDIO
TITLE “The Stranger”
PERFORMER “Operation: Mindcrime”
INDEX 01 22:29:47
TRACK 08 AUDIO
TITLE “Hearing Voices”
PERFORMER “Operation: Mindcrime”
INDEX 01 26:19:17
TRACK 09 AUDIO
TITLE “On Queue”
PERFORMER “Operation: Mindcrime”
INDEX 01 31:57:19
TRACK 10 AUDIO
TITLE “An Ambush Of Sadness”
PERFORMER “Operation: Mindcrime”
INDEX 01 36:48:37
TRACK 11 AUDIO
TITLE “Kicking In The Door”
PERFORMER “Operation: Mindcrime”
INDEX 01 38:30:34
TRACK 12 AUDIO
TITLE “The Fall”
PERFORMER “Operation: Mindcrime”
INDEX 01 41:34:65


0

Publication author

offline 4 days

Chaos

3
Comments: 4Publics: 3565Registration: 02-02-2019
Spread the Download

Leave a Reply

Your email address will not be published. Required fields are marked *

Enter the text from the image below
 

This site uses Akismet to reduce spam. Learn how your comment data is processed.