Oomph – XXV




No Cover available

Artist: Oomph
Year: 2015
Genre: Rock
Notes: Discogs
Add. Notes:
Watch Songs on: YouTube
Cover incl.: Yes
Encoder: FLAC
Bitrate: ~1000 kBit/s (44.1 kHz/16 Bit/s)
Log & Cue incl.: Yes
Size: 408,3 MB
Password: “slam” (without ” “)


All Downloads/Hosters are compatible

Download 1
KatFile.com
Turbobit.net
FileFactory.com
Rapidgator.net
Download 2
KatFile.com
Turbobit.net
FileFactory.com
Rapidgator.net

Tracklist:

1 - Dein Retter - 2:54
2 - Alles Aus Liebe - 3:38
3 - Jetzt Oder Nie - 3:44
4 - Als Wärs Das Letzte Mal - 3:31
5 - Mary Bell - 5:16
6 - Jede Reise Hat Ein Ende - 4:03
7 - Unter Diesem Mond - 4:11
8 - All Deine Wunden - 4:01
9 - Fleisch Und Fell - 4:27
10 - Tick Tack - 4:25
11 - Nicht Von Dieser Welt - 3:51
12 - Spieler - 3:30
13 - Zielscheibe - 3:10
14 - Leis Ganz Leis - 3:54

EAC-Log, CUE-Sheed & NFO:

Click to open spoiler
Exact Audio Copy V1.0 beta 3 from 29. August 2011

EAC extraction logfile from 21. August 2015, 19:50

Oomph / XXV (060254739529)

Used drive : PLEXTOR BD-R PX-B940SA Adapter: 5 ID: 0

Read mode : Secure
Utilize accurate stream : Yes
Defeat audio cache : Yes
Make use of C2 pointers : No

Read offset correction : 667
Overread into Lead-In and Lead-Out : No
Fill up missing offset samples with silence : Yes
Delete leading and trailing silent blocks : No
Null samples used in CRC calculations : Yes
Used interface : Installed external ASPI interface

Used output format : User Defined Encoder
Selected bitrate : 128 kBit/s
Quality : High
Add ID3 tag : Yes
Command line compressor : G:\Program Files (x86)\Exact Audio Copy\Flac\flac.exe
Additional command line options : -V -8 -T “Date=%year%” -T “Genre=%genre%” %source%

TOC of the extracted CD

Track | Start | Length | Start sector | End sector
———————————————————
1 | 0:00.00 | 2:57.40 | 0 | 13314
2 | 2:57.40 | 3:39.18 | 13315 | 29757
3 | 6:36.58 | 3:44.16 | 29758 | 46573
4 | 10:20.74 | 3:31.21 | 46574 | 62419
5 | 13:52.20 | 5:16.44 | 62420 | 86163
6 | 19:08.64 | 4:04.34 | 86164 | 104497
7 | 23:13.23 | 4:11.13 | 104498 | 123335
8 | 27:24.36 | 4:02.29 | 123336 | 141514
9 | 31:26.65 | 4:27.35 | 141515 | 161574
10 | 35:54.25 | 4:25.44 | 161575 | 181493
11 | 40:19.69 | 3:51.47 | 181494 | 198865
12 | 44:11.41 | 3:30.02 | 198866 | 214617
13 | 47:41.43 | 3:12.69 | 214618 | 229086
14 | 50:54.37 | 3:54.55 | 229087 | 246691

Range status and errors

Selected range

Filename D:\MUSIC\Oomph – XXV (060254739529).wav

Peak level 98.8 %
Extraction speed 2.8 X
Range quality 100.0 %
Test CRC C1D4E88F
Copy CRC C1D4E88F
Copy OK

No errors occurred

AccurateRip summary

Track 1 not present in database
Track 2 not present in database
Track 3 not present in database
Track 4 not present in database
Track 5 not present in database
Track 6 not present in database
Track 7 not present in database
Track 8 not present in database
Track 9 not present in database
Track 10 not present in database
Track 11 not present in database
Track 12 not present in database
Track 13 not present in database
Track 14 not present in database

None of the tracks are present in the AccurateRip database

End of status report

==== Log checksum B163CBCF30905E8543F6253D6A05A002FA9A1382CED768B3B9B28B91C2FEC395 ====

REM GENRE “Neue Deutsche Harte”
REM DATE 2015
REM DISCID CB0CD90E
REM COMMENT “ExactAudioCopy v1.0b3”
PERFORMER “Oomph”
TITLE “XXV (060254739529)”
FILE “Oomph – XXV (060254739529).flac” WAVE
TRACK 01 AUDIO
TITLE “Dein Retter”
PERFORMER “Oomph”
INDEX 01 00:00:00
TRACK 02 AUDIO
TITLE “Jetzt oder nie”
PERFORMER “Oomph”
INDEX 00 02:54:70
INDEX 01 02:57:40
TRACK 03 AUDIO
TITLE “Mary Bell”
PERFORMER “Oomph”
INDEX 01 06:36:58
TRACK 04 AUDIO
TITLE “Unter diesem Mond”
PERFORMER “Oomph”
INDEX 01 10:20:74
TRACK 05 AUDIO
TITLE “Fleisch und Fell”
PERFORMER “Oomph”
INDEX 01 13:52:20
TRACK 06 AUDIO
TITLE “Nicht von dieser Welt”
PERFORMER “Oomph”
INDEX 01 19:08:64
TRACK 07 AUDIO
TITLE “Zielscheibe”
PERFORMER “Oomph”
INDEX 01 23:13:23
TRACK 08 AUDIO
TITLE “Alles aus Liebe”
PERFORMER “Oomph”
INDEX 01 27:24:36
TRACK 09 AUDIO
TITLE “Als wars das letzte Mal”
PERFORMER “Oomph”
INDEX 01 31:26:65
TRACK 10 AUDIO
TITLE “Jede Reise hat ein Ende”
PERFORMER “Oomph”
INDEX 01 35:54:25
TRACK 11 AUDIO
TITLE “All deine Wunden”
PERFORMER “Oomph”
INDEX 01 40:19:69
TRACK 12 AUDIO
TITLE “Tick Tack”
PERFORMER “Oomph”
INDEX 01 44:11:41
TRACK 13 AUDIO
TITLE “Spieler”
PERFORMER “Oomph”
INDEX 01 47:41:43
TRACK 14 AUDIO
TITLE “Leis ganz leis”
PERFORMER “Oomph”
INDEX 00 50:52:50
INDEX 01 50:54:37


Leave a Reply

Your email address will not be published. Required fields are marked *

This site uses Akismet to reduce spam. Learn how your comment data is processed.