Oomph – Wunschkind (Reissue)




Artist: Oomph!
Year: 2004
Genre: Rock
Notes: Discogs
Add. Notes: Reissue
Encoder: FLAC
Bitrate: ~1000 kBit/s (VBR)
Size: 462 MB
Password: “slam” (without ” “)


Tracklist:

1 Born-Praised-Kissed 7:30
2 Wunschkind 5:35
3 You've Got It 5:34
4 Down In This Hole 4:17
5 Wälsungenblut 2:29
6 Krüppel 3:35
7 My Soubrette 6:30
8 Mind Over Matter 4:35
9 Filthy Playground 3:52
10 I.N.R.I. vs. Jahwe 5:14
11 Song For Whoever 4:18
12 Der Alptraum Der Kindheit 2:25
13 Krüppel (Urteil Mix) 4:07
14 I.N.R.I. vs. Jahwe (Dies Irae Mix) 
5:10

EAC-Log, CUE-Sheed & NFO:

Click to open spoiler
Exact Audio Copy V0.99 prebeta 5 from 4. May 2009

EAC extraction logfile from 16. May 2010, 16:52

Oomph! / Wunschkind (Reissue)

Used drive : Optiarc DVD RW AD-7170S Adapter: 2 ID: 2

Read mode : Secure
Utilize accurate stream : Yes
Defeat audio cache : Yes
Make use of C2 pointers : No

Read offset correction : 48
Overread into Lead-In and Lead-Out : No
Fill up missing offset samples with silence : Yes
Delete leading and trailing silent blocks : No
Null samples used in CRC calculations : Yes
Used interface : Installed external ASPI interface

Used output format : Internal WAV Routines
Sample format : 44.100 Hz; 16 Bit; Stereo

TOC of the extracted CD

Track | Start | Length | Start sector | End sector
———————————————————
1 | 0:00.00 | 7:30.23 | 0 | 33772
2 | 7:30.23 | 5:34.74 | 33773 | 58896
3 | 13:05.22 | 5:33.62 | 58897 | 83933
4 | 18:39.09 | 4:17.33 | 83934 | 103241
5 | 22:56.42 | 2:28.57 | 103242 | 114398
6 | 25:25.24 | 3:35.35 | 114399 | 130558
7 | 29:00.59 | 6:30.33 | 130559 | 159841
8 | 35:31.17 | 4:34.74 | 159842 | 180465
9 | 40:06.16 | 3:51.57 | 180466 | 197847
10 | 43:57.73 | 5:14.41 | 197848 | 221438
11 | 49:12.39 | 4:17.70 | 221439 | 240783
12 | 53:30.34 | 2:25.34 | 240784 | 251692
13 | 55:55.68 | 4:07.06 | 251693 | 270223
14 | 60:02.74 | 5:10.73 | 270224 | 293546

Range status and errors

Selected range

Filename H:\torrents UPLOAD\Oomph!\Oomph! – 2004 – Wunschkind (Reissue)\Oomph! – 2004 – Wunschkind (Reissue).wav

Peak level 100.0 %
Range quality 100.0 %
Test CRC 0D665E2B
Copy CRC 0D665E2B
Copy OK

No errors occurred

AccurateRip summary

Track 1 accurately ripped (confidence 6) [3B3D2902]
Track 2 accurately ripped (confidence 6) [3140B1B5]
Track 3 accurately ripped (confidence 6) [289DC91D]
Track 4 accurately ripped (confidence 6) [B9C2D652]
Track 5 accurately ripped (confidence 6) [E0EDD9FA]
Track 6 accurately ripped (confidence 6) [02A611C0]
Track 7 accurately ripped (confidence 6) [F56D354E]
Track 8 accurately ripped (confidence 6) [DEE95BC8]
Track 9 accurately ripped (confidence 6) [1691BCE0]
Track 10 accurately ripped (confidence 6) [99FCD005]
Track 11 accurately ripped (confidence 6) [78EF3454]
Track 12 accurately ripped (confidence 6) [9F12C321]
Track 13 accurately ripped (confidence 6) [0EB1BAC6]
Track 14 accurately ripped (confidence 6) [50A2DD4E]

All tracks accurately ripped

End of status report

#———–

TRACK 01 AUDIO
TITLE “Born – Praised – Kissed”
PERFORMER “Oomph!”
INDEX 01 00:00:00
TRACK 02 AUDIO
TITLE “Wunschkind”
PERFORMER “Oomph!”
INDEX 01 07:30:23
TRACK 03 AUDIO
TITLE “You’ve Got It”
PERFORMER “Oomph!”
INDEX 01 13:05:22
TRACK 04 AUDIO
TITLE “Down In This Hole”
PERFORMER “Oomph!”
INDEX 01 18:39:09
TRACK 05 AUDIO
TITLE “Waelsungenblut”
PERFORMER “Oomph!”
INDEX 01 22:56:42
TRACK 06 AUDIO
TITLE “Krueppel”
PERFORMER “Oomph!”
INDEX 01 25:25:24
TRACK 07 AUDIO
TITLE “My Soubrette”
PERFORMER “Oomph!”
INDEX 01 29:00:59
TRACK 08 AUDIO
TITLE “Mind Over Matter”
PERFORMER “Oomph!”
INDEX 01 35:31:17
TRACK 09 AUDIO
TITLE “Filthy Playground”
PERFORMER “Oomph!”
INDEX 01 40:06:16
TRACK 10 AUDIO
TITLE “I.N.R.I. vs. JAHWE”
PERFORMER “Oomph!”
INDEX 01 43:57:73
TRACK 11 AUDIO
TITLE “Song For Whoever”
PERFORMER “Oomph!”
INDEX 01 49:12:39
TRACK 12 AUDIO
TITLE “Der Alptraum Der Kindheit”
PERFORMER “Oomph!”
INDEX 01 53:30:34
TRACK 13 AUDIO
TITLE “Krueppel [Urteil Mix]”
PERFORMER “Oomph!”
INDEX 01 55:55:68
TRACK 14 AUDIO
TITLE “I.N.R.I. vs JAHWE [Dies Irae Mix]”
PERFORMER “Oomph!”
INDEX 01 60:02:74

Leave a Reply

Your email address will not be published. Required fields are marked *

Enter the text from the image below
 

This site uses Akismet to reduce spam. Learn how your comment data is processed.