Oomph – Sperm




Artist: Oomph
Year: 1994
Genre: Rock
Notes: Discogs
Add. Notes: Ltd. Edition
Encoder: FLAC
Bitrate: ~1100 kBit/s (VBR)
Size: 364,2 MB
Password: “slam” (without ” “)


Tracklist:

1	Suck-Taste-Spit
2	Sex
3	War	4:13
4	Dickhead	3:44
5	Schisma	1:05
6	Feiert Das Kreuz	4:55
7	Love	4:22
8	Das Ist Freiheit	5:39
9	Kismet	2:47
10	Breathtaker (Bronchitic Mix)	4:55
11	Ich Bin Der Weg	5:05
12	U-Said (Live)	4:22

Click to open spoiler
Exact Audio Copy V0.99 prebeta 5 from 4. May 2009

EAC extraction logfile from 11. December 2009, 1:18

Oomph! / Sperm (Limited Edition)

Used drive : Optiarc DVD RW AD-7170S Adapter: 2 ID: 2

Read mode : Secure
Utilize accurate stream : Yes
Defeat audio cache : Yes
Make use of C2 pointers : No

Read offset correction : 48
Overread into Lead-In and Lead-Out : No
Fill up missing offset samples with silence : Yes
Delete leading and trailing silent blocks : No
Null samples used in CRC calculations : Yes
Used interface : Installed external ASPI interface

Used output format : Internal WAV Routines
Sample format : 44.100 Hz; 16 Bit; Stereo

TOC of the extracted CD

Track | Start | Length | Start sector | End sector
———————————————————
1 | 0:00.32 | 4:40.58 | 32 | 21089
2 | 4:41.15 | 3:06.70 | 21090 | 35109
3 | 7:48.10 | 4:22.10 | 35110 | 54769
4 | 12:10.20 | 3:35.57 | 54770 | 70951
5 | 15:46.02 | 1:05.50 | 70952 | 75876
6 | 16:51.52 | 4:55.33 | 75877 | 98034
7 | 21:47.10 | 4:22.60 | 98035 | 117744
8 | 26:09.70 | 5:39.57 | 117745 | 143226
9 | 31:49.52 | 2:47.48 | 143227 | 155799
10 | 34:37.25 | 4:55.65 | 155800 | 177989
11 | 39:33.15 | 5:05.70 | 177990 | 200934
12 | 44:39.10 | 4:22.65 | 200935 | 220649

Range status and errors

Selected range

Filename H:\torrents UPLOAD\Oomph!\Oomph! – 1994 – Sperm (Limited Edition)\Oomph! – 1994 – Sperm (Limited Edition).wav

Peak level 96.9 %
Range quality 99.9 %
Test CRC DFB909E0
Copy CRC DFB909E0
Copy OK

No errors occurred

AccurateRip summary

Track 1 not present in database
Track 2 not present in database
Track 3 not present in database
Track 4 not present in database
Track 5 not present in database
Track 6 not present in database
Track 7 not present in database
Track 8 not present in database
Track 9 not present in database
Track 10 not present in database
Track 11 not present in database
Track 12 not present in database

None of the tracks are present in the AccurateRip database

———-

REM GENRE Industrial
REM DATE 1994
REM DISCID 9B0B7E0C
REM COMMENT “ExactAudioCopy v0.99pb5”
PERFORMER “Oomph!”
TITLE “Sperm (Limited Edition)”
FILE “Oomph! – 1994 – Sperm (Limited Edition).wav” WAVE
TRACK 01 AUDIO
TITLE “Suck-Taste-Spit”
PERFORMER “Oomph!”
INDEX 00 00:00:00
INDEX 01 00:00:32
TRACK 02 AUDIO
TITLE “Sex”
PERFORMER “Oomph!”
INDEX 00 04:39:55
INDEX 01 04:41:15
TRACK 03 AUDIO
TITLE “War”
PERFORMER “Oomph!”
INDEX 00 07:46:50
INDEX 01 07:48:10
TRACK 04 AUDIO
TITLE “Dickhead”
PERFORMER “Oomph!”
INDEX 01 12:10:20
TRACK 05 AUDIO
TITLE “Schisma”
PERFORMER “Oomph!”
INDEX 00 15:44:07
INDEX 01 15:46:02
TRACK 06 AUDIO
TITLE “Feiert Das Kreuz”
PERFORMER “Oomph!”
INDEX 01 16:51:52
TRACK 07 AUDIO
TITLE “Love”
PERFORMER “Oomph!”
INDEX 00 21:45:07
INDEX 01 21:47:10
TRACK 08 AUDIO
TITLE “Das Ist Freiheit”
PERFORMER “Oomph!”
INDEX 00 26:09:32
INDEX 01 26:09:70
TRACK 09 AUDIO
TITLE “Kismet”
PERFORMER “Oomph!”
INDEX 00 31:47:72
INDEX 01 31:49:52
TRACK 10 AUDIO
TITLE “Breathtaker [Bronchitic Mix]”
PERFORMER “Oomph!”
INDEX 00 34:34:62
INDEX 01 34:37:25
TRACK 11 AUDIO
TITLE “Ich Bin Der Weg”
PERFORMER “Oomph!”
INDEX 00 39:30:55
INDEX 01 39:33:15
TRACK 12 AUDIO
TITLE “U-Said [Live]”
PERFORMER “Oomph!”
INDEX 00 44:37:47
INDEX 01 44:39:10

End of status report

Leave a Reply

Your email address will not be published. Required fields are marked *

This site uses Akismet to reduce spam. Learn how your comment data is processed.