Oomph – Oomph




Artist: Oomph!
Year: 1992
Genre: Rock
Notes: Discogs
Add. Notes:
Encoder: FLAC
Bitrate: ~900 kBit/s (VBR)
Size: 337 MB
Password: “slam” (without ” “)


Tracklist:

1 Mein Herz 7:05
2 Me Inside You 4:13
3 Der Neue Gott 5:57
4 No Heart No Pain 5:04
5 Breathe 4:15
6 Gleichschritt 5:37
7 Under Pressure 3:56
8 Wir Leben 3:20
9 Purple Skin 4:19
10 Ich Bin Du 6:10
11 Der Neue Gott 4:37

EAC-Log, CUE-Sheed & NFO:

Click to open spoiler
Exact Audio Copy V0.99 prebeta 5 from 4. May 2009

EAC extraction logfile from 11. December 2009, 0:07

Oomph! / Oomph!

Used drive : Optiarc DVD RW AD-7170S Adapter: 2 ID: 2

Read mode : Secure
Utilize accurate stream : Yes
Defeat audio cache : Yes
Make use of C2 pointers : No

Read offset correction : 48
Overread into Lead-In and Lead-Out : No
Fill up missing offset samples with silence : Yes
Delete leading and trailing silent blocks : No
Null samples used in CRC calculations : Yes
Used interface : Installed external ASPI interface

Used output format : Internal WAV Routines
Sample format : 44.100 Hz; 16 Bit; Stereo

TOC of the extracted CD

Track | Start | Length | Start sector | End sector
———————————————————
1 | 0:00.00 | 3:55.70 | 0 | 17694
2 | 3:55.70 | 4:59.12 | 17695 | 40131
3 | 8:55.07 | 4:42.10 | 40132 | 61291
4 | 13:37.17 | 3:40.60 | 61292 | 77851
5 | 17:18.02 | 4:15.23 | 77852 | 96999
6 | 21:33.25 | 5:39.30 | 97000 | 122454
7 | 27:12.55 | 3:58.20 | 122455 | 140324
8 | 31:11.00 | 3:21.57 | 140325 | 155456
9 | 34:32.57 | 4:20.03 | 155457 | 174959
10 | 38:52.60 | 6:13.02 | 174960 | 202936
11 | 45:05.62 | 4:38.73 | 202937 | 223859

Range status and errors

Selected range

Filename H:\torrents UPLOAD\Oomph!\Oomph! – 1992 – Oomph!\Oomph! – 1992 – Oomph!.wav

Peak level 99.6 %
Range quality 99.9 %
Test CRC 1A5ABC26
Copy CRC 1A5ABC26
Copy OK

No errors occurred

AccurateRip summary

Track 1 accurately ripped (confidence 2) [21FF6D40]
Track 2 accurately ripped (confidence 2) [B0B79FA0]
Track 3 accurately ripped (confidence 2) [DA5BB048]
Track 4 accurately ripped (confidence 2) [22C76046]
Track 5 accurately ripped (confidence 2) [4C92A19B]
Track 6 accurately ripped (confidence 2) [3A7479C8]
Track 7 accurately ripped (confidence 2) [B21C2522]
Track 8 accurately ripped (confidence 2) [DFCD8F1B]
Track 9 accurately ripped (confidence 2) [FD66A996]
Track 10 accurately ripped (confidence 2) [682C4CC3]
Track 11 accurately ripped (confidence 2) [5E0C941B]

All tracks accurately ripped

End of status report

————————–

REM GENRE Industrial
REM DATE 1992
REM DISCID 8F0BA80B
REM COMMENT “ExactAudioCopy v0.99pb5”
PERFORMER “Oomph!”
TITLE “Oomph!”
FILE “Oomph! – 1992 – Oomph!.wav” WAVE
TRACK 01 AUDIO
TITLE “Mein Herz”
PERFORMER “Oomph!”
INDEX 01 00:00:00
TRACK 02 AUDIO
TITLE “Me Inside You”
PERFORMER “Oomph!”
INDEX 00 03:55:60
INDEX 01 03:55:70
TRACK 03 AUDIO
TITLE “Der Neue Gott”
PERFORMER “Oomph!”
INDEX 00 08:54:70
INDEX 01 08:55:07
TRACK 04 AUDIO
TITLE “No Heart No Pain”
PERFORMER “Oomph!”
INDEX 00 13:37:00
INDEX 01 13:37:17
TRACK 05 AUDIO
TITLE “Breathe”
PERFORMER “Oomph!”
INDEX 01 17:18:02
TRACK 06 AUDIO
TITLE “Gleichschritt”
PERFORMER “Oomph!”
INDEX 01 21:33:25
TRACK 07 AUDIO
TITLE “Under Pressure”
PERFORMER “Oomph!”
INDEX 00 27:11:72
INDEX 01 27:12:55
TRACK 08 AUDIO
TITLE “Wir Leben”
PERFORMER “Oomph!”
INDEX 00 31:10:20
INDEX 01 31:11:00
TRACK 09 AUDIO
TITLE “Purple Skin”
PERFORMER “Oomph!”
INDEX 00 34:32:50
INDEX 01 34:32:57
TRACK 10 AUDIO
TITLE “Ich Bin Du”
PERFORMER “Oomph!”
INDEX 01 38:52:60
TRACK 11 AUDIO
TITLE “Der Neue Gott (CD Bonus)”
PERFORMER “Oomph!”
INDEX 00 45:03:52
INDEX 01 45:05:62

Leave a Reply

Your email address will not be published. Required fields are marked *

Enter the text from the image below
 

This site uses Akismet to reduce spam. Learn how your comment data is processed.