Oomph – Defekt




Artist: Oomph
Year: 1995
Genre: Rock
Notes: Discogs
Add. Notes:
Encoder: FLAC
Bitrate: ~1000 kBit/s (VBR)
Size: 456,47 MB
Password: “slam” (without ” “)


Tracklist:

1. Hate Sweet Hate (05:35)
2. Ice-Coffin (04:55)
3. Willst Du Hoffnung? (05:03)
4. Hello My Name Is Cancer (03:51)
5. Zeitweilig Incontinent (02:01)
6. Hast Du Geglaubt? (feat. Stephanie Kieß) (04:33)
7. Come And Kick Me (06:24)
8. Turn The Knife (04:57)
9. Decubitus Vulgaris (02:08)
10. Mitten Ins Herz (05:05)
11. Your Love Is Killing Me (04:02)
12. Defekt (10:23)

Click to open spoiler
Exact Audio Copy V0.99 prebeta 5 from 4. May 2009

EAC extraction logfile from 11. December 2009, 0:35

Oomph! / Defekt

Used drive : Optiarc DVD RW AD-7170S Adapter: 2 ID: 2

Read mode : Secure
Utilize accurate stream : Yes
Defeat audio cache : Yes
Make use of C2 pointers : No

Read offset correction : 48
Overread into Lead-In and Lead-Out : No
Fill up missing offset samples with silence : Yes
Delete leading and trailing silent blocks : No
Null samples used in CRC calculations : Yes
Used interface : Installed external ASPI interface

Used output format : Internal WAV Routines
Sample format : 44.100 Hz; 16 Bit; Stereo

TOC of the extracted CD

Track | Start | Length | Start sector | End sector
———————————————————
1 | 0:01.00 | 5:35.32 | 75 | 25231
2 | 5:36.32 | 4:55.49 | 25232 | 47405
3 | 10:32.06 | 5:03.29 | 47406 | 70159
4 | 15:35.35 | 3:51.27 | 70160 | 87511
5 | 19:26.62 | 2:01.03 | 87512 | 96589
6 | 21:27.65 | 4:33.40 | 96590 | 117104
7 | 26:01.30 | 6:24.02 | 117105 | 145906
8 | 32:25.32 | 4:57.08 | 145907 | 168189
9 | 37:22.40 | 2:08.30 | 168190 | 177819
10 | 39:30.70 | 5:05.30 | 177820 | 200724
11 | 44:36.25 | 4:02.72 | 200725 | 218946
12 | 48:39.22 | 10:22.64 | 218947 | 265660

Range status and errors

Selected range

Filename H:\torrents UPLOAD\Oomph!\Oomph! – 1995 – Defekt\Oomph! – 1995 – Defekt.wav

Peak level 100.0 %
Range quality 99.9 %
Test CRC B657F87D
Copy CRC B657F87D
Copy OK

No errors occurred

AccurateRip summary

Track 1 not present in database
Track 2 not present in database
Track 3 not present in database
Track 4 not present in database
Track 5 not present in database
Track 6 not present in database
Track 7 not present in database
Track 8 not present in database
Track 9 not present in database
Track 10 not present in database
Track 11 not present in database
Track 12 not present in database

None of the tracks are present in the AccurateRip database

End of status report

—–

—REM GENRE Industrial
REM DATE 1995
REM DISCID B80DD50C
REM COMMENT “ExactAudioCopy v0.99pb5”
PERFORMER “Oomph!”
TITLE “Defekt”
FILE “Oomph! – 1995 – Defekt.wav” WAVE
TRACK 01 AUDIO
TITLE “Hate Sweet Hate”
PERFORMER “Oomph!”
INDEX 00 00:00:00
INDEX 01 00:01:00
TRACK 02 AUDIO
TITLE “Ice-Coffin”
PERFORMER “Oomph!”
INDEX 00 05:34:30
INDEX 01 05:36:32
TRACK 03 AUDIO
TITLE “Willst Du Hoffnung?”
PERFORMER “Oomph!”
INDEX 00 10:27:10
INDEX 01 10:32:06
TRACK 04 AUDIO
TITLE “Hello My Name Is Cancer”
PERFORMER “Oomph!”
INDEX 00 15:33:33
INDEX 01 15:35:35
TRACK 05 AUDIO
TITLE “Zeitweilig Incontinent”
PERFORMER “Oomph!”
INDEX 00 19:24:57
INDEX 01 19:26:62
TRACK 06 AUDIO
TITLE “Hast Du Geglaubt?”
PERFORMER “Oomph!”
INDEX 00 21:26:17
INDEX 01 21:27:65
TRACK 07 AUDIO
TITLE “Come And Kick Me”
PERFORMER “Oomph!”
INDEX 00 25:59:57
INDEX 01 26:01:30
TRACK 08 AUDIO
TITLE “Turn The Knife”
PERFORMER “Oomph!”
INDEX 00 32:22:56
INDEX 01 32:25:32
TRACK 09 AUDIO
TITLE “Decubitus Vulgaris”
PERFORMER “Oomph!”
INDEX 00 37:21:63
INDEX 01 37:22:40
TRACK 10 AUDIO
TITLE “Mitten Ins Herz”
PERFORMER “Oomph!”
INDEX 01 39:30:70
TRACK 11 AUDIO
TITLE “Your Love Is Killing Me”
PERFORMER “Oomph!”
INDEX 00 44:34:52
INDEX 01 44:36:25
TRACK 12 AUDIO
TITLE “Defekt”
PERFORMER “Oomph!”
INDEX 00 48:36:49
INDEX 01 48:39:22

Leave a Reply

Your email address will not be published. Required fields are marked *

This site uses Akismet to reduce spam. Learn how your comment data is processed.