OHL – Zurück Zur Front




Die Toten Hosen – Zurück Zum Glück

Artist: OHL
Year: 2003
Genre: Punk
Notes: Discogs
Add. Notes:
Watch Songs on: YouTube
Cover incl.: No
Encoder: FLAC
Bitrate: ~1100 kBit/s (44.1 kHz/16 Bit/s)
Log & Cue incl.: Yes
Size: 240 MB
Password: “slam” (without ” “)


All Downloads/Hosters are compatible

Download 1
KatFile.com
Turbobit.net
Rapidgator.net
Share-online.biz
Download 2
KatFile.com
Turbobit.net
Rapidgator.net
Share-online.biz

Tracklist:

1 - Hell Wie Tausend Sonnen - 2:53
2 - Meine Religion - 2:17
3 - Keinen Führer Keinen Gott - 2:22
4 - Der Unbekannte Soldat - 3:29
5 - Der Preis Der Freiheit - 3:18
6 - Deutschland 2003 - 2:22
7 - Gott Mit Uns - 3:01
8 - Ein Volk Ein Reich Ein Führer - 
2:09
9 - Hammer Und Sichel - 2:01
10 - Der Feuersturm - 2:28
11 - Der Morgen Gehört Uns - 2:50
12 - Stalingrad - 2:28

EAC-Log, CUE-Sheed & NFO:

Click to open spoiler
Exact Audio Copy V1.1 from 23. June 2015

EAC extraction logfile from 22. April 2016, 22:25

OHL / Zurück zur Front

Used drive : TSSTcorpCDDVDW SH-222AL Adapter: 1 ID: 1

Read mode : Secure
Utilize accurate stream : Yes
Defeat audio cache : Yes
Make use of C2 pointers : No

Read offset correction : 0
Overread into Lead-In and Lead-Out : No
Fill up missing offset samples with silence : Yes
Delete leading and trailing silent blocks : No
Null samples used in CRC calculations : Yes
Used interface : Native Win32 interface for Win NT & 2000
Gap handling : Not detected, thus appended to previous track

Used output format : User Defined Encoder
Selected bitrate : 1024 kBit/s
Quality : High
Add ID3 tag : No
Command line compressor : D:\Own Rips\flac-1.3.1-win\flac.exe
Additional command line options : -5 -T “ALBUM=%albumtitle%” -T “ALBUMARTIST=%albumartist%” -T “DATE=%year%” -T “GENRE=%genre%” -T “COMMENT=%comment%” -T “DISCTOTAL=%totalcds%” -T “DISCNUMBER=%cdnumber%” -T “TRACKTOTAL=%numtracks%” -T “TRACKNUMBER=%tracknr%” -T “TITLE=%title%” -T “ARTIST=%artist%” -T “COMPOSER=%composer%” %haslyrics%–tag-from-file=LYRICS=”%lyricsfile%”%haslyrics% %hascover%–picture=”%coverfile%”%hascover% %source% -o %dest%

TOC of the extracted CD

Track | Start | Length | Start sector | End sector
———————————————————
1 | 0:00.00 | 2:53.64 | 0 | 13038
2 | 2:53.64 | 2:17.43 | 13039 | 23356
3 | 5:11.32 | 2:23.04 | 23357 | 34085
4 | 7:34.36 | 3:29.46 | 34086 | 49806
5 | 11:04.07 | 3:18.60 | 49807 | 64716
6 | 14:22.67 | 2:22.30 | 64717 | 75396
7 | 16:45.22 | 3:01.38 | 75397 | 89009
8 | 19:46.60 | 2:09.44 | 89010 | 98728
9 | 21:56.29 | 2:01.07 | 98729 | 107810
10 | 23:57.36 | 2:28.43 | 107811 | 118953
11 | 26:26.04 | 2:50.44 | 118954 | 131747
12 | 29:16.48 | 2:28.41 | 131748 | 142888

Track 1

Filename D:\Own Rips\FLAC\OHL\[2003] Zurück zur Front\01. Hell wie tausend Sonnen.wav

Peak level 100.0 %
Extraction speed 1.5 X
Track quality 100.0 %
Test CRC 407F695F
Copy CRC 407F695F
Copy OK

Track 2

Filename D:\Own Rips\FLAC\OHL\[2003] Zurück zur Front\02. Meine Religion.wav

Peak level 100.0 %
Extraction speed 1.6 X
Track quality 100.0 %
Test CRC 86ED2255
Copy CRC 86ED2255
Copy OK

Track 3

Filename D:\Own Rips\FLAC\OHL\[2003] Zurück zur Front\03. Keinen Führer, keinen Gott.wav

Peak level 100.0 %
Extraction speed 1.7 X
Track quality 100.0 %
Test CRC 7CDDB49F
Copy CRC 7CDDB49F
Copy OK

Track 4

Filename D:\Own Rips\FLAC\OHL\[2003] Zurück zur Front\04. Der unbekannte Soldat.wav

Peak level 100.0 %
Extraction speed 2.0 X
Track quality 100.0 %
Test CRC 49B8CE51
Copy CRC 49B8CE51
Copy OK

Track 5

Filename D:\Own Rips\FLAC\OHL\[2003] Zurück zur Front\05. Der Preis der Freiheit.wav

Peak level 100.0 %
Extraction speed 2.1 X
Track quality 100.0 %
Test CRC A4DE338C
Copy CRC A4DE338C
Copy OK

Track 6

Filename D:\Own Rips\FLAC\OHL\[2003] Zurück zur Front\06. Deutschland 2003.wav

Peak level 100.0 %
Extraction speed 1.8 X
Track quality 99.9 %
Test CRC 86DC6C53
Copy CRC 86DC6C53
Copy OK

Track 7

Filename D:\Own Rips\FLAC\OHL\[2003] Zurück zur Front\07. Gott mit uns.wav

Peak level 100.0 %
Extraction speed 2.2 X
Track quality 100.0 %
Test CRC 1E1CBB79
Copy CRC 1E1CBB79
Copy OK

Track 8

Filename D:\Own Rips\FLAC\OHL\[2003] Zurück zur Front\08. Ein Volk, ein Reich, ein Führer.wav

Peak level 100.0 %
Extraction speed 2.1 X
Track quality 100.0 %
Test CRC A9158D7C
Copy CRC A9158D7C
Copy OK

Track 9

Filename D:\Own Rips\FLAC\OHL\[2003] Zurück zur Front\09. Hammer und Sichel.wav

Peak level 100.0 %
Extraction speed 2.2 X
Track quality 100.0 %
Test CRC 4C36C54B
Copy CRC 4C36C54B
Copy OK

Track 10

Filename D:\Own Rips\FLAC\OHL\[2003] Zurück zur Front\10. Der Feuersturm.wav

Peak level 100.0 %
Extraction speed 2.4 X
Track quality 100.0 %
Test CRC D5059B8C
Copy CRC D5059B8C
Copy OK

Track 11

Filename D:\Own Rips\FLAC\OHL\[2003] Zurück zur Front\11. Der Morgen gehört uns.wav

Peak level 100.0 %
Extraction speed 2.5 X
Track quality 100.0 %
Test CRC 652B330A
Copy CRC 652B330A
Copy OK

Track 12

Filename D:\Own Rips\FLAC\OHL\[2003] Zurück zur Front\12. Stalingrad.wav

Peak level 100.0 %
Extraction speed 2.5 X
Track quality 100.0 %
Test CRC B3931667
Copy CRC B3931667
Copy OK

No errors occurred

End of status report

—- CUETools DB Plugin V2.1.6

[CTDB TOCID: dU72mz7FR5sXibjVA4kkHTGQLYk-] found
Submit result: already submitted
Track | CTDB Status
1 | (2/2) Accurately ripped
2 | (2/2) Accurately ripped
3 | (2/2) Accurately ripped
4 | (2/2) Accurately ripped
5 | (2/2) Accurately ripped
6 | (2/2) Accurately ripped
7 | (2/2) Accurately ripped
8 | (2/2) Accurately ripped
9 | (2/2) Accurately ripped
10 | (2/2) Accurately ripped
11 | (2/2) Accurately ripped
12 | (2/2) Accurately ripped

==== Log checksum 47342147DA8E4DADEBCE152A31A8826BD0ADF886930713E311770E3414E866CD ====

————————————————————

Exact Audio Copy V1.1 from 23. June 2015

EAC extraction logfile from 22. April 2016, 22:25

OHL / Zurück zur Front

Used drive : TSSTcorpCDDVDW SH-222AL Adapter: 1 ID: 1

Read mode : Secure
Utilize accurate stream : Yes
Defeat audio cache : Yes
Make use of C2 pointers : No

Read offset correction : 0
Overread into Lead-In and Lead-Out : No
Fill up missing offset samples with silence : Yes
Delete leading and trailing silent blocks : No
Null samples used in CRC calculations : Yes
Used interface : Native Win32 interface for Win NT & 2000
Gap handling : Not detected, thus appended to previous track

Used output format : User Defined Encoder
Selected bitrate : 1024 kBit/s
Quality : High
Add ID3 tag : No
Command line compressor : D:\Own Rips\flac-1.3.1-win\flac.exe
Additional command line options : -5 -T “ALBUM=%albumtitle%” -T “ALBUMARTIST=%albumartist%” -T “DATE=%year%” -T “GENRE=%genre%” -T “COMMENT=%comment%” -T “DISCTOTAL=%totalcds%” -T “DISCNUMBER=%cdnumber%” -T “TRACKTOTAL=%numtracks%” -T “TRACKNUMBER=%tracknr%” -T “TITLE=%title%” -T “ARTIST=%artist%” -T “COMPOSER=%composer%” %haslyrics%–tag-from-file=LYRICS=”%lyricsfile%”%haslyrics% %hascover%–picture=”%coverfile%”%hascover% %source% -o %dest%

TOC of the extracted CD

Track | Start | Length | Start sector | End sector
———————————————————
1 | 0:00.00 | 2:53.64 | 0 | 13038
2 | 2:53.64 | 2:17.43 | 13039 | 23356
3 | 5:11.32 | 2:23.04 | 23357 | 34085
4 | 7:34.36 | 3:29.46 | 34086 | 49806
5 | 11:04.07 | 3:18.60 | 49807 | 64716
6 | 14:22.67 | 2:22.30 | 64717 | 75396
7 | 16:45.22 | 3:01.38 | 75397 | 89009
8 | 19:46.60 | 2:09.44 | 89010 | 98728
9 | 21:56.29 | 2:01.07 | 98729 | 107810
10 | 23:57.36 | 2:28.43 | 107811 | 118953
11 | 26:26.04 | 2:50.44 | 118954 | 131747
12 | 29:16.48 | 2:28.41 | 131748 | 142888

Track 1

Filename D:\Own Rips\FLAC\OHL\[2003] Zurück zur Front\01. Hell wie tausend Sonnen.wav

Peak level 100.0 %
Extraction speed 1.5 X
Track quality 100.0 %
Test CRC 407F695F
Copy CRC 407F695F
Copy OK

Track 2

Filename D:\Own Rips\FLAC\OHL\[2003] Zurück zur Front\02. Meine Religion.wav

Peak level 100.0 %
Extraction speed 1.6 X
Track quality 100.0 %
Test CRC 86ED2255
Copy CRC 86ED2255
Copy OK

Track 3

Filename D:\Own Rips\FLAC\OHL\[2003] Zurück zur Front\03. Keinen Führer, keinen Gott.wav

Peak level 100.0 %
Extraction speed 1.7 X
Track quality 100.0 %
Test CRC 7CDDB49F
Copy CRC 7CDDB49F
Copy OK

Track 4

Filename D:\Own Rips\FLAC\OHL\[2003] Zurück zur Front\04. Der unbekannte Soldat.wav

Peak level 100.0 %
Extraction speed 2.0 X
Track quality 100.0 %
Test CRC 49B8CE51
Copy CRC 49B8CE51
Copy OK

Track 5

Filename D:\Own Rips\FLAC\OHL\[2003] Zurück zur Front\05. Der Preis der Freiheit.wav

Peak level 100.0 %
Extraction speed 2.1 X
Track quality 100.0 %
Test CRC A4DE338C
Copy CRC A4DE338C
Copy OK

Track 6

Filename D:\Own Rips\FLAC\OHL\[2003] Zurück zur Front\06. Deutschland 2003.wav

Peak level 100.0 %
Extraction speed 1.8 X
Track quality 99.9 %
Test CRC 86DC6C53
Copy CRC 86DC6C53
Copy OK

Track 7

Filename D:\Own Rips\FLAC\OHL\[2003] Zurück zur Front\07. Gott mit uns.wav

Peak level 100.0 %
Extraction speed 2.2 X
Track quality 100.0 %
Test CRC 1E1CBB79
Copy CRC 1E1CBB79
Copy OK

Track 8

Filename D:\Own Rips\FLAC\OHL\[2003] Zurück zur Front\08. Ein Volk, ein Reich, ein Führer.wav

Peak level 100.0 %
Extraction speed 2.1 X
Track quality 100.0 %
Test CRC A9158D7C
Copy CRC A9158D7C
Copy OK

Track 9

Filename D:\Own Rips\FLAC\OHL\[2003] Zurück zur Front\09. Hammer und Sichel.wav

Peak level 100.0 %
Extraction speed 2.2 X
Track quality 100.0 %
Test CRC 4C36C54B
Copy CRC 4C36C54B
Copy OK

Track 10

Filename D:\Own Rips\FLAC\OHL\[2003] Zurück zur Front\10. Der Feuersturm.wav

Peak level 100.0 %
Extraction speed 2.4 X
Track quality 100.0 %
Test CRC D5059B8C
Copy CRC D5059B8C
Copy OK

Track 11

Filename D:\Own Rips\FLAC\OHL\[2003] Zurück zur Front\11. Der Morgen gehört uns.wav

Peak level 100.0 %
Extraction speed 2.5 X
Track quality 100.0 %
Test CRC 652B330A
Copy CRC 652B330A
Copy OK

Track 12

Filename D:\Own Rips\FLAC\OHL\[2003] Zurück zur Front\12. Stalingrad.wav

Peak level 100.0 %
Extraction speed 2.5 X
Track quality 100.0 %
Test CRC B3931667
Copy CRC B3931667
Copy OK

No errors occurred

End of status report

—- CUETools DB Plugin V2.1.6

[CTDB TOCID: dU72mz7FR5sXibjVA4kkHTGQLYk-] found
Submit result: already submitted
Track | CTDB Status
1 | (2/2) Accurately ripped
2 | (2/2) Accurately ripped
3 | (2/2) Accurately ripped
4 | (2/2) Accurately ripped
5 | (2/2) Accurately ripped
6 | (2/2) Accurately ripped
7 | (2/2) Accurately ripped
8 | (2/2) Accurately ripped
9 | (2/2) Accurately ripped
10 | (2/2) Accurately ripped
11 | (2/2) Accurately ripped
12 | (2/2) Accurately ripped

==== Log checksum 47342147DA8E4DADEBCE152A31A8826BD0ADF886930713E311770E3414E866CD ====

REM GENRE Punk
REM DATE 2003
REM DISCID AC07710C
REM COMMENT “ExactAudioCopy v1.1”
PERFORMER “OHL”
TITLE “Zurück zur Front”
FILE “OHL\[2003] Zurück zur Front\01. Hell wie tausend Sonnen.wav” WAVE
TRACK 01 AUDIO
TITLE “Hell wie tausend Sonnen”
PERFORMER “OHL”
INDEX 01 00:00:00
TRACK 02 AUDIO
TITLE “Meine Religion”
PERFORMER “OHL”
INDEX 00 02:52:64
FILE “OHL\[2003] Zurück zur Front\02. Meine Religion.wav” WAVE
INDEX 01 00:00:00
TRACK 03 AUDIO
TITLE “Keinen Führer, keinen Gott”
PERFORMER “OHL”
INDEX 00 02:16:43
FILE “OHL\[2003] Zurück zur Front\03. Keinen Führer, keinen Gott.wav” WAVE
INDEX 01 00:00:00
TRACK 04 AUDIO
TITLE “Der unbekannte Soldat”
PERFORMER “OHL”
INDEX 00 02:22:04
FILE “OHL\[2003] Zurück zur Front\04. Der unbekannte Soldat.wav” WAVE
INDEX 01 00:00:00
TRACK 05 AUDIO
TITLE “Der Preis der Freiheit”
PERFORMER “OHL”
INDEX 00 03:28:46
FILE “OHL\[2003] Zurück zur Front\05. Der Preis der Freiheit.wav” WAVE
INDEX 01 00:00:00
TRACK 06 AUDIO
TITLE “Deutschland 2003”
PERFORMER “OHL”
INDEX 00 03:17:60
FILE “OHL\[2003] Zurück zur Front\06. Deutschland 2003.wav” WAVE
INDEX 01 00:00:00
TRACK 07 AUDIO
TITLE “Gott mit uns”
PERFORMER “OHL”
INDEX 00 02:21:30
FILE “OHL\[2003] Zurück zur Front\07. Gott mit uns.wav” WAVE
INDEX 01 00:00:00
TRACK 08 AUDIO
TITLE “Ein Volk, ein Reich, ein Führer”
PERFORMER “OHL”
INDEX 00 03:00:38
FILE “OHL\[2003] Zurück zur Front\08. Ein Volk, ein Reich, ein Führer.wav” WAVE
INDEX 01 00:00:00
TRACK 09 AUDIO
TITLE “Hammer und Sichel”
PERFORMER “OHL”
INDEX 00 02:08:44
FILE “OHL\[2003] Zurück zur Front\09. Hammer und Sichel.wav” WAVE
INDEX 01 00:00:00
TRACK 10 AUDIO
TITLE “Der Feuersturm”
PERFORMER “OHL”
INDEX 00 02:00:07
FILE “OHL\[2003] Zurück zur Front\10. Der Feuersturm.wav” WAVE
INDEX 01 00:00:00
TRACK 11 AUDIO
TITLE “Der Morgen gehört uns”
PERFORMER “OHL”
INDEX 00 02:27:43
FILE “OHL\[2003] Zurück zur Front\11. Der Morgen gehört uns.wav” WAVE
INDEX 01 00:00:00
TRACK 12 AUDIO
TITLE “Stalingrad”
PERFORMER “OHL”
INDEX 00 02:49:44
FILE “OHL\[2003] Zurück zur Front\12. Stalingrad.wav” WAVE
INDEX 01 00:00:00


Leave a Reply

Your email address will not be published. Required fields are marked *

This site uses Akismet to reduce spam. Learn how your comment data is processed.