Nirvana – Sliver: The Best Of The Box




Artist: Nirvana
Year: 2005
Genre: Punk
Notes: Discogs
Add. Notes:
Encoder: FLAC
Bitrate: ~800 kBit/s (VBR)
Size: 506 MB
Password: “slam” (without ” “)


Tracklist:

1.  Spank Thru (1985 Fecal Matter 
Demo)
2.  Heartbreaker (live)
3.  Mrs Butterworth (1988 
Rehearsal)
4.  Floyd The Barber (live)
5.  Clean Up Before She Comes (Solo 
acoustic)
6.  About A Girl (Home Demo)
7.  Blandest (Demo)
8.  Ain't It A Shame (Demo)
9.  Sappy (1990 Studio Demo)
10.  Opinion (live Solo acoustic)
11.  Lithium (live Solo acoustic)
12.  Sliver (Solo acoustic Demo)
13.  Smells Like Teen Spirit 
(Rehearsal Demo)
14.  Come As You Are (Boom Box 
version)
15.  Old Age (Nevermind Outtake)
16.  Oh The Guilt
17.  Rape Me (Solo acoustic)
18.  Rape Me (Demo)
19.  Heart Shaped Box (Demo)
20.  Do Re Mi (Home Demo)
21.  You Know You're Right (Home 
Demo)
22.  All Apologies (Home Demo)

EAC-Log, CUE-Sheed & NFO:

Click to open spoiler
REM COMMENT “CUETools generated dummy CUE sheet”
FILE “01 – Spank Thru (1985 Fecal Matter Demo).flac” WAVE
TRACK 01 AUDIO
INDEX 01 00:00:00
FILE “02 – Heartbreaker (Live).flac” WAVE
TRACK 02 AUDIO
INDEX 01 00:00:00
FILE “03 – Mrs. Butterworth (Rehearsal Demo).flac” WAVE
TRACK 03 AUDIO
INDEX 01 00:00:00
FILE “04 – Floyd the Barber (Live).flac” WAVE
TRACK 04 AUDIO
INDEX 01 00:00:00
FILE “05 – Clean Up Before She Comes (Home Demo).flac” WAVE
TRACK 05 AUDIO
INDEX 01 00:00:00
FILE “06 – About a Girl (Home Demo).flac” WAVE
TRACK 06 AUDIO
INDEX 01 00:00:00
FILE “07 – Blandest (Studio Demo).flac” WAVE
TRACK 07 AUDIO
INDEX 01 00:00:00
FILE “08 – Ain’t It a Shame (Studio Demo).flac” WAVE
TRACK 08 AUDIO
INDEX 01 00:00:00
FILE “09 – Sappy (1990 Studio Demo).flac” WAVE
TRACK 09 AUDIO
INDEX 01 00:00:00
FILE “10 – Opinion (Solo Acoustic Radio Appearance).flac” WAVE
TRACK 10 AUDIO
INDEX 01 00:00:00
FILE “11 – Lithium (Solo Acoustic Radio Appearance).flac” WAVE
TRACK 11 AUDIO
INDEX 01 00:00:00
FILE “12 – Sliver (Home Demo).flac” WAVE
TRACK 12 AUDIO
INDEX 01 00:00:00
FILE “13 – Smells Like Teen Spirit (Boom Box Version).flac” WAVE
TRACK 13 AUDIO
INDEX 01 00:00:00
FILE “14 – Come as You Are (Boom Box Version).flac” WAVE
TRACK 14 AUDIO
INDEX 01 00:00:00
FILE “15 – Old Age (Nevermind Outtake).flac” WAVE
TRACK 15 AUDIO
INDEX 01 00:00:00
FILE “16 – Oh, the Guilt.flac” WAVE
TRACK 16 AUDIO
INDEX 01 00:00:00
FILE “17 – Rape Me (Home Demo).flac” WAVE
TRACK 17 AUDIO
INDEX 01 00:00:00
FILE “18 – Rape Me (Band Demo).flac” WAVE
TRACK 18 AUDIO
INDEX 01 00:00:00
FILE “19 – Heart-Shaped Box (Band Demo).flac” WAVE
TRACK 19 AUDIO
INDEX 01 00:00:00
FILE “20 – Do Re Mi (Home Demo).flac” WAVE
TRACK 20 AUDIO
INDEX 01 00:00:00
FILE “21 – You Know You’re Right (Home Demo).flac” WAVE
TRACK 21 AUDIO
INDEX 01 00:00:00
FILE “22 – All Apologies (Home Demo).flac” WAVE
TRACK 22 AUDIO
INDEX 01 00:00:00

Leave a Reply

Your email address will not be published. Required fields are marked *

This site uses Akismet to reduce spam. Learn how your comment data is processed.