Nirvana – Nevermind




No Cover available

Artist: Nirvana
Year: 1991
Genre: Punk
Notes: Discogs
Add. Notes:
Watch Songs on: YouTube
Cover incl.: Yes
Encoder: FLAC
Bitrate: ~900 kBit/s (44.1 kHz/16 Bit/s)
Log & Cue incl.: Yes
Size: 335,5 MB
Password: “slam” (without ” “)


All Downloads/Hosters are compatible

Download 1
KatFile.com
Turbobit.net
FileFactory.com
Rapidgator.net
Download 2
KatFile.com
Turbobit.net
FileFactory.com
Rapidgator.net

Tracklist:

1 Smells Like Teen Spirit 5:01
2 In Bloom 4:14
3 Come As You Are 3:39
4 Breed 3:03
5 Lithium 4:17
6 Polly 2:57
7 Territorial Pissings 2:23
8 Drain You 3:43
9 Lounge Act 2:36
10 Stay Away 3:32
11 On A Plain 3:16
12.1 Something In The Way 3:44
12.2 Endless Nameless 6:45

EAC-Log, CUE-Sheed & NFO:

Click to open spoiler
REM COMMENT “CUETools generated dummy CUE sheet”
FILE “01 – Smells Like Teen Spirit.flac” WAVE
TRACK 01 AUDIO
INDEX 01 00:00:00
FILE “02 – In Bloom.flac” WAVE
TRACK 02 AUDIO
INDEX 01 00:00:00
FILE “03 – Come as You Are.flac” WAVE
TRACK 03 AUDIO
INDEX 01 00:00:00
FILE “04 – Breed.flac” WAVE
TRACK 04 AUDIO
INDEX 01 00:00:00
FILE “05 – Lithium.flac” WAVE
TRACK 05 AUDIO
INDEX 01 00:00:00
FILE “06 – Polly.flac” WAVE
TRACK 06 AUDIO
INDEX 01 00:00:00
FILE “07 – Territorial Pissings.flac” WAVE
TRACK 07 AUDIO
INDEX 01 00:00:00
FILE “08 – Drain You.flac” WAVE
TRACK 08 AUDIO
INDEX 01 00:00:00
FILE “09 – Lounge Act.flac” WAVE
TRACK 09 AUDIO
INDEX 01 00:00:00
FILE “10 – Stay Away.flac” WAVE
TRACK 10 AUDIO
INDEX 01 00:00:00
FILE “11 – On a Plain.flac” WAVE
TRACK 11 AUDIO
INDEX 01 00:00:00
FILE “12 – Something in the Way.flac” WAVE
TRACK 12 AUDIO
INDEX 01 00:00:00

Leave a Reply

Your email address will not be published. Required fields are marked *

This site uses Akismet to reduce spam. Learn how your comment data is processed.