Nirvana – Nevermind (20th Anniversary Deluxe Edition)




Artist: Nirvana
Year: 2011
Genre: Punk
Notes: Discogs
Add. Notes: 20th Anniversary Deluxe Edition
Cover incl.: Yes
Encoder: FLAC
Bitrate: ~900 kBit/s (44.1 kHz/16 Bit/s)
Log & Cue incl.: Yes
Size: 1064,35 MB
Password: “slam” (without ” “)


All Downloads/Hosters are compatible

Download 1
NitroFlare.com
KatFile.com
Turbobit.net
Rapidgator.net
UploadRar.com
Download 2
NitroFlare.com
KatFile.com
Turbobit.net
Rapidgator.net
UploadRar.com

Tracklist:

1-1 Smells Like Teen Spirit 5:01
1-2 In Bloom 4:15
1-3 Come As You Are 3:38
1-4 Breed 3:04
1-5 Lithium 4:17
1-6 Polly 2:57
1-7 Territorial Pissings 2:22
1-8 Drain You 3:43
1-9 Lounge Act 2:36
1-10 Stay Away 3:32
1-11 On A Plain 3:16
1-12a Something In The Way
1-12b [silence] 0:16
1-12c Endless, Nameless 6:56
1-13 Even In His Youth 3:03
1-14 Aneurysm 4:46
1-15 Curmudgeon 2:59
1-16 D-7 (Live At The BBC)
1-17 Been A Son (Live) 2:31
1-18 School (Live) 2:33
1-19 Drain You (Live) 3:53
1-20 Sliver (Live) 2:04
1-21 Polly (Live) 2:47
2-1 In Bloom 4:32
2-2 Immodium (Breed) 3:15
2-3 Lithium 4:31
2-4 Polly 2:58
2-5 Pay To Play 3:29
2-6 Here She Comes Now
2-7 Dive 3:55
2-8 Sappy 3:37
2-9 Smells Like Teen Spirit 5:40
2-10 Verse Chorus Verse 3:14
2-11 Territorial Pissings 2:12
2-12 Lounge Act 2:38
2-13 Come As Your Are 4:12
2-14 Old Age 4:22
2-15 Something In The Way 5:31
2-16 On A Plain 3:21
2-17 Drain You
2-18 Something In The Way 3:23

EAC-Log, CUE-Sheed & NFO:

Click to open spoiler
REM COMMENT “CUETools generated dummy CUE sheet”
FILE “01 – Smells Like Teen Spirit.flac” WAVE
TRACK 01 AUDIO
INDEX 01 00:00:00
FILE “02 – In Bloom.flac” WAVE
TRACK 02 AUDIO
INDEX 01 00:00:00
FILE “03 – Come as You Are.flac” WAVE
TRACK 03 AUDIO
INDEX 01 00:00:00
FILE “04 – Breed.flac” WAVE
TRACK 04 AUDIO
INDEX 01 00:00:00
FILE “05 – Lithium.flac” WAVE
TRACK 05 AUDIO
INDEX 01 00:00:00
FILE “06 – Polly.flac” WAVE
TRACK 06 AUDIO
INDEX 01 00:00:00
FILE “07 – Territorial Pissings.flac” WAVE
TRACK 07 AUDIO
INDEX 01 00:00:00
FILE “08 – Drain You.flac” WAVE
TRACK 08 AUDIO
INDEX 01 00:00:00
FILE “09 – Lounge Act.flac” WAVE
TRACK 09 AUDIO
INDEX 01 00:00:00
FILE “10 – Stay Away.flac” WAVE
TRACK 10 AUDIO
INDEX 01 00:00:00
FILE “11 – On a Plain.flac” WAVE
TRACK 11 AUDIO
INDEX 01 00:00:00
FILE “12 – Something in the Way.flac” WAVE
TRACK 12 AUDIO
INDEX 01 00:00:00
FILE “13 – Even in His Youth.flac” WAVE
TRACK 13 AUDIO
INDEX 01 00:00:00
FILE “14 – Aneurysm.flac” WAVE
TRACK 14 AUDIO
INDEX 01 00:00:00
FILE “15 – Curmudgeon.flac” WAVE
TRACK 15 AUDIO
INDEX 01 00:00:00
FILE “16 – D-7 [Live][Live at the BBC].flac” WAVE
TRACK 16 AUDIO
INDEX 01 00:00:00
FILE “17 – Been a Son [Live].flac” WAVE
TRACK 17 AUDIO
INDEX 01 00:00:00
FILE “18 – School [Live].flac” WAVE
TRACK 18 AUDIO
INDEX 01 00:00:00
FILE “19 – Drain You [Live].flac” WAVE
TRACK 19 AUDIO
INDEX 01 00:00:00
FILE “20 – Sliver [Live].flac” WAVE
TRACK 20 AUDIO
INDEX 01 00:00:00
FILE “21 – Polly [Live].flac” WAVE
TRACK 21 AUDIO
INDEX 01 00:00:00

REM COMMENT “CUETools generated dummy CUE sheet”
FILE “01 – In Bloom [#].flac” WAVE
TRACK 01 AUDIO
INDEX 01 00:00:00
FILE “02 – Immodium (Breed) [#].flac” WAVE
TRACK 02 AUDIO
INDEX 01 00:00:00
FILE “03 – Lithium [#].flac” WAVE
TRACK 03 AUDIO
INDEX 01 00:00:00
FILE “04 – Polly [#].flac” WAVE
TRACK 04 AUDIO
INDEX 01 00:00:00
FILE “05 – Pay to Play.flac” WAVE
TRACK 05 AUDIO
INDEX 01 00:00:00
FILE “06 – Here She Comes Now.flac” WAVE
TRACK 06 AUDIO
INDEX 01 00:00:00
FILE “07 – Dive [#].flac” WAVE
TRACK 07 AUDIO
INDEX 01 00:00:00
FILE “08 – Sappy [#].flac” WAVE
TRACK 08 AUDIO
INDEX 01 00:00:00
FILE “09 – Smells Like Teen Spirit.flac” WAVE
TRACK 09 AUDIO
INDEX 01 00:00:00
FILE “10 – Verse Chorus Verse [#].flac” WAVE
TRACK 10 AUDIO
INDEX 01 00:00:00
FILE “11 – Territorial Pissings [#].flac” WAVE
TRACK 11 AUDIO
INDEX 01 00:00:00
FILE “12 – Lounge Act [#].flac” WAVE
TRACK 12 AUDIO
INDEX 01 00:00:00
FILE “13 – Come as You Are.flac” WAVE
TRACK 13 AUDIO
INDEX 01 00:00:00
FILE “14 – Old Age [#].flac” WAVE
TRACK 14 AUDIO
INDEX 01 00:00:00
FILE “15 – Something in the Way [#].flac” WAVE
TRACK 15 AUDIO
INDEX 01 00:00:00
FILE “16 – On a Plain [#].flac” WAVE
TRACK 16 AUDIO
INDEX 01 00:00:00
FILE “17 – Drain You [#][BBC Session].flac” WAVE
TRACK 17 AUDIO
INDEX 01 00:00:00
FILE “18 – Something in the Way [#][BBC Session].flac” WAVE
TRACK 18 AUDIO
INDEX 01 00:00:00


Leave a Reply

Your email address will not be published. Required fields are marked *

Enter the text from the image below
 

This site uses Akismet to reduce spam. Learn how your comment data is processed.