Nirvana – MTV Unplugged in New York




No Cover available

Artist: Nirvana
Year: 1994
Genre: Punk
Notes: Discogs
Add. Notes:
Watch Songs on: YouTube
Cover incl.: Yes
Encoder: FLAC
Bitrate: ~900 kBit/s (44.1 kHz/16 Bit/s)
Log & Cue incl.: Yes/Yes
Size: 338,8 MB
Password: “slam” (without ” “)


All Downloads/Hosters are compatible

Download 1
KatFile.com
Turbobit.net
FileFactory.com
Rapidgator.net
Download 2
KatFile.com
Turbobit.net
FileFactory.com
Rapidgator.net

Tracklist:

1 About A Girl 3:38
2 Come As You Are 4:14
3 Jesus Doesn't Want Me For A Sunbeam 4:37
4 The Man Who Sold The World 4:21
5 Pennyroyal Tea 3:41
6 Dumb 2:53
7 Polly 3:16
8 On A Plain 3:45
9 Something In The Way 4:01
10 Plateau 3:39
11 Oh Me 3:26
12 Lake Of Fire 2:56
13 All Apologies 4:23
14 Where Did You Sleep Last Night 5:06

EAC-Log, CUE-Sheed & NFO:

Click to open spoiler
REM COMMENT “CUETools generated dummy CUE sheet”
FILE “01 – About a Girl.flac” WAVE
TRACK 01 AUDIO
INDEX 01 00:00:00
FILE “02 – Come as You Are.flac” WAVE
TRACK 02 AUDIO
INDEX 01 00:00:00
FILE “03 – Jesus Doesn’t Want Me for a Sunbeam.flac” WAVE
TRACK 03 AUDIO
INDEX 01 00:00:00
FILE “04 – The Man Who Sold the World.flac” WAVE
TRACK 04 AUDIO
INDEX 01 00:00:00
FILE “05 – Pennyroyal Tea.flac” WAVE
TRACK 05 AUDIO
INDEX 01 00:00:00
FILE “06 – Dumb.flac” WAVE
TRACK 06 AUDIO
INDEX 01 00:00:00
FILE “07 – Polly.flac” WAVE
TRACK 07 AUDIO
INDEX 01 00:00:00
FILE “08 – On a Plain.flac” WAVE
TRACK 08 AUDIO
INDEX 01 00:00:00
FILE “09 – Something in the Way.flac” WAVE
TRACK 09 AUDIO
INDEX 01 00:00:00
FILE “10 – Plateau.flac” WAVE
TRACK 10 AUDIO
INDEX 01 00:00:00
FILE “11 – Oh Me.flac” WAVE
TRACK 11 AUDIO
INDEX 01 00:00:00
FILE “12 – Lake of Fire.flac” WAVE
TRACK 12 AUDIO
INDEX 01 00:00:00
FILE “13 – All Apologies.flac” WAVE
TRACK 13 AUDIO
INDEX 01 00:00:00
FILE “14 – Where Did You Sleep Last Night.flac” WAVE
TRACK 14 AUDIO
INDEX 01 00:00:00

Leave a Reply

Your email address will not be published. Required fields are marked *

Enter the text from the image below
 

This site uses Akismet to reduce spam. Learn how your comment data is processed.