Nirvana – Live at Reading




Artist: Nirvana
Year: 2009
Genre: Punk
Notes: Discogs
Add. Notes:
Cover incl.: Yes
Encoder: FLAC
Bitrate: ~1100 kBit/s (44.1 kHz/16 Bit/s)
Log & Cue incl.: Yes
Size: 568,91 MB
Password: “slam” (without ” “)


All Downloads/Hosters are compatible

Download 1
Turbobit.net
Rapidgator.net
KatFile.com
UploadRar.com
Download 2
Turbobit.net
Rapidgator.net
KatFile.com
UploadRar.com

Tracklist:

1 - Breed - 3:12
2 - Drain You - 3:38
3 - Aneurysm - 4:35
4 - School - 2:43
5 - Sliver - 2:06
6 - In Bloom - 4:36
7 - Come As You Are - 3:36
8 - Lithium - 4:21
9 - About A Girl - 2:51
10 - Tourette's - 1:50
11 - Polly - 2:48
12 - Lounge Act - 2:36
13 - Smells Like Teen Spirit - 4:45
14 - On A Plain - 3:00
15 - Negative Creep - 2:52
16 - Been A Son - 2:13
17 - All Apologies - 3:09
18 - Blew - 3:19
19 - Dumb - 2:32
20 - Stay Away - 3:32
21 - Spank Thru - 3:06
22 - The Money Will Roll Right In - 2:16
23 - D-7 - 3:43
24 - Territorial Pissings - 4:29

EAC-Log, CUE-Sheed & NFO:

Click to open spoiler
REM COMMENT “CUETools generated dummy CUE sheet”
FILE “01 – Breed.flac” WAVE
TRACK 01 AUDIO
INDEX 01 00:00:00
FILE “02 – Drain You.flac” WAVE
TRACK 02 AUDIO
INDEX 01 00:00:00
FILE “03 – Aneurysm.flac” WAVE
TRACK 03 AUDIO
INDEX 01 00:00:00
FILE “04 – School.flac” WAVE
TRACK 04 AUDIO
INDEX 01 00:00:00
FILE “05 – Sliver.flac” WAVE
TRACK 05 AUDIO
INDEX 01 00:00:00
FILE “06 – In Bloom.flac” WAVE
TRACK 06 AUDIO
INDEX 01 00:00:00
FILE “07 – Come as You Are.flac” WAVE
TRACK 07 AUDIO
INDEX 01 00:00:00
FILE “08 – Lithium.flac” WAVE
TRACK 08 AUDIO
INDEX 01 00:00:00
FILE “09 – About a Girl.flac” WAVE
TRACK 09 AUDIO
INDEX 01 00:00:00
FILE “10 – Tourette’s.flac” WAVE
TRACK 10 AUDIO
INDEX 01 00:00:00
FILE “11 – Polly.flac” WAVE
TRACK 11 AUDIO
INDEX 01 00:00:00
FILE “12 – Lounge Act.flac” WAVE
TRACK 12 AUDIO
INDEX 01 00:00:00
FILE “13 – Smells Like Teen Spirit.flac” WAVE
TRACK 13 AUDIO
INDEX 01 00:00:00
FILE “14 – On a Plain.flac” WAVE
TRACK 14 AUDIO
INDEX 01 00:00:00
FILE “15 – Negative Creep.flac” WAVE
TRACK 15 AUDIO
INDEX 01 00:00:00
FILE “16 – Been a Son.flac” WAVE
TRACK 16 AUDIO
INDEX 01 00:00:00
FILE “17 – All Apologies.flac” WAVE
TRACK 17 AUDIO
INDEX 01 00:00:00
FILE “18 – Blew.flac” WAVE
TRACK 18 AUDIO
INDEX 01 00:00:00
FILE “19 – Dumb.flac” WAVE
TRACK 19 AUDIO
INDEX 01 00:00:00
FILE “20 – Stay Away.flac” WAVE
TRACK 20 AUDIO
INDEX 01 00:00:00
FILE “21 – Spank Thru.flac” WAVE
TRACK 21 AUDIO
INDEX 01 00:00:00
FILE “22 – The Money Will Roll Right In.flac” WAVE
TRACK 22 AUDIO
INDEX 01 00:00:00
FILE “23 – D-7.flac” WAVE
TRACK 23 AUDIO
INDEX 01 00:00:00
FILE “24 – Territorial Pissings.flac” WAVE
TRACK 24 AUDIO
INDEX 01 00:00:00

Leave a Reply

Your email address will not be published. Required fields are marked *

This site uses Akismet to reduce spam. Learn how your comment data is processed.