Nirvana – In Utero




Artist: Nirvana
Year: 1993
Genre: Punk
Notes: Discogs
Encoder: FLAC
Bitrate: ~900 kBit/s (VBR)
Size: 338,08 MB
Hoster: Share-Online
Password: “slam” (without ” “)


Tracklist:

Serve The Servants 3:34
Scentless Apprentice 3:47
Heart-Shaped Box 4:39
Rape Me 2:49
Frances Farmer Will Have Her Revenge On Seattle
 4:07
Dumb 2:29
Very Ape 1:55
Milk It 3:52
Pennyroyal Tea 3:36
Radio Friendly Unit Shifter 4:49
Tourette's 1:33
All Apologies 3:50

Click to open spoiler
REM COMMENT “CUETools generated dummy CUE sheet”
FILE “01 – Serve the Servants.flac” WAVE
TRACK 01 AUDIO
INDEX 01 00:00:00
FILE “02 – Scentless Apprentice.flac” WAVE
TRACK 02 AUDIO
INDEX 01 00:00:00
FILE “03 – Heart-Shaped Box.flac” WAVE
TRACK 03 AUDIO
INDEX 01 00:00:00
FILE “04 – Rape Me.flac” WAVE
TRACK 04 AUDIO
INDEX 01 00:00:00
FILE “05 – Frances Farmer Will Have Her Revenge on Seattle.flac” WAVE
TRACK 05 AUDIO
INDEX 01 00:00:00
FILE “06 – Dumb.flac” WAVE
TRACK 06 AUDIO
INDEX 01 00:00:00
FILE “07 – Very Ape.flac” WAVE
TRACK 07 AUDIO
INDEX 01 00:00:00
FILE “08 – Milk It.flac” WAVE
TRACK 08 AUDIO
INDEX 01 00:00:00
FILE “09 – Pennyroyal Tea.flac” WAVE
TRACK 09 AUDIO
INDEX 01 00:00:00
FILE “10 – Radio Friendly Unit Shifter.flac” WAVE
TRACK 10 AUDIO
INDEX 01 00:00:00
FILE “11 – Tourette’s.flac” WAVE
TRACK 11 AUDIO
INDEX 01 00:00:00
FILE “12 – All Apologies.flac” WAVE
TRACK 12 AUDIO
INDEX 01 00:00:00

Leave a Reply

Your email address will not be published. Required fields are marked *

This site uses Akismet to reduce spam. Learn how your comment data is processed.