Nirvana – From the Muddy Banks of the Wishkah




Artist: Nirvana
Year: 1996
Genre: Punk
Notes: Discogs
Encoder: FLAC
Bitrate: ~1000 kBit/s (VBR)
Size: 400,61 MB
Hoster: Share-Online
Password: “slam” (without ” “)


Tracklist:

Intro 0:52
School 2:40
Drain You 3:34
Aneurysm 4:31
Smells Like Teen Spirit 4:47
Been A Son 2:07
Lithium 4:10
Sliver 1:55
Spank Thru 3:10
Scentless Apprentice 3:31
Heart-Shaped Box 4:41
Milk It 3:45
Negative Creep 2:43
Polly 2:30
Breed 3:28
Tourette's 1:55
Blew 3:36

Click to open spoiler
REM COMMENT “CUETools generated dummy CUE sheet”
FILE “01 – Intro.flac” WAVE
TRACK 01 AUDIO
INDEX 01 00:00:00
FILE “02 – School.flac” WAVE
TRACK 02 AUDIO
INDEX 01 00:00:00
FILE “03 – Drain You.flac” WAVE
TRACK 03 AUDIO
INDEX 01 00:00:00
FILE “04 – Aneurysm.flac” WAVE
TRACK 04 AUDIO
INDEX 01 00:00:00
FILE “05 – Smells Like Teen Spirit.flac” WAVE
TRACK 05 AUDIO
INDEX 01 00:00:00
FILE “06 – Been a Son.flac” WAVE
TRACK 06 AUDIO
INDEX 01 00:00:00
FILE “07 – Lithium.flac” WAVE
TRACK 07 AUDIO
INDEX 01 00:00:00
FILE “08 – Sliver.flac” WAVE
TRACK 08 AUDIO
INDEX 01 00:00:00
FILE “09 – Spank Thru.flac” WAVE
TRACK 09 AUDIO
INDEX 01 00:00:00
FILE “10 – Scentless Apprentice.flac” WAVE
TRACK 10 AUDIO
INDEX 01 00:00:00
FILE “11 – Heart-Shaped Box.flac” WAVE
TRACK 11 AUDIO
INDEX 01 00:00:00
FILE “12 – Milk It.flac” WAVE
TRACK 12 AUDIO
INDEX 01 00:00:00
FILE “13 – Negative Creep.flac” WAVE
TRACK 13 AUDIO
INDEX 01 00:00:00
FILE “14 – Polly.flac” WAVE
TRACK 14 AUDIO
INDEX 01 00:00:00
FILE “15 – Breed.flac” WAVE
TRACK 15 AUDIO
INDEX 01 00:00:00
FILE “16 – Tourette’s.flac” WAVE
TRACK 16 AUDIO
INDEX 01 00:00:00
FILE “17 – Blew.flac” WAVE
TRACK 17 AUDIO
INDEX 01 00:00:00

Leave a Reply

Your email address will not be published. Required fields are marked *

This site uses Akismet to reduce spam. Learn how your comment data is processed.