Nirvana – Bleach




No Cover available

Artist: Nirvana
Year: 1989
Genre: Punk
Notes: Discogs
Add. Notes:
Watch Songs on: YouTube
Cover incl.: Yes
Encoder: FLAC
Bitrate: ~900 kBit/s (44.1 kHz/16 Bit/s)
Log & Cue incl.: Yes/Yes
Size: 316,2 MB
Password: “slam” (without ” “)


All Downloads/Hosters are compatible

Download 1
KatFile.com
Turbobit.net
Rapidgator.net
FileFactory.com
Download 2
KatFile.com
Turbobit.net
Rapidgator.net
FileFactory.com

Tracklist:

1 Blew 2:55
2 Floyd The Barber 2:18
3 About A Girl 2:48
4 School 2:42
5 Love Buzz 3:35
6 Paper Cuts 4:06
7 Negative Creep 2:56
8 Scoff 4:10
9 Swap Meet 3:03
10 Mr. Moustache 3:24
11 Sifting 5:22
12 Big Cheese 3:42
13 Downer 1:44

EAC-Log, CUE-Sheed & NFO:

Click to open spoiler
REM COMMENT “CUETools generated dummy CUE sheet”
FILE “01 – Blew.flac” WAVE
TRACK 01 AUDIO
INDEX 01 00:00:00
FILE “02 – Floyd the Barber.flac” WAVE
TRACK 02 AUDIO
INDEX 01 00:00:00
FILE “03 – About a Girl.flac” WAVE
TRACK 03 AUDIO
INDEX 01 00:00:00
FILE “04 – School.flac” WAVE
TRACK 04 AUDIO
INDEX 01 00:00:00
FILE “05 – Love Buzz.flac” WAVE
TRACK 05 AUDIO
INDEX 01 00:00:00
FILE “06 – Paper Cuts.flac” WAVE
TRACK 06 AUDIO
INDEX 01 00:00:00
FILE “07 – Negative Creep.flac” WAVE
TRACK 07 AUDIO
INDEX 01 00:00:00
FILE “08 – Scoff.flac” WAVE
TRACK 08 AUDIO
INDEX 01 00:00:00
FILE “09 – Swap Meet.flac” WAVE
TRACK 09 AUDIO
INDEX 01 00:00:00
FILE “10 – Mr. Moustache.flac” WAVE
TRACK 10 AUDIO
INDEX 01 00:00:00
FILE “11 – Sifting.flac” WAVE
TRACK 11 AUDIO
INDEX 01 00:00:00
FILE “12 – Big Cheese.flac” WAVE
TRACK 12 AUDIO
INDEX 01 00:00:00
FILE “13 – Downer.flac” WAVE
TRACK 13 AUDIO
INDEX 01 00:00:00

Leave a Reply

Your email address will not be published. Required fields are marked *

This site uses Akismet to reduce spam. Learn how your comment data is processed.