Nirvana – Bleach (20th Anniversary Deluxe Edition)




Artist: Nirvana
Year: 1989/2009
Genre: Punk
Notes: Discogs
Add. Notes: 20th Anniversary Deluxe Edition
Cover incl.: Yes
Encoder: FLAC
Bitrate: ~900 kBit/s (44.1 kHz/16 Bit/s)
Log & Cue incl.: Yes
Size: 633,06 MB
Password: “slam” (without ” “)


All Downloads/Hosters are compatible

Download 1
Turbobit.net
KatFile.com
Rapidgator.net
Download 2
Turbobit.net
KatFile.com
Rapidgator.net

Tracklist:

Bleach
1 Blew 2:54
2 Floyd The Barber 2:18
3 About A Girl 2:48
4 School 2:42
5 Love Buzz
6 Paper Cuts 4:06
7 Negative Creep 2:56
8 Scoff 4:10
9 Swap Meet 3:03
10 Mr. Moustache 3:24
11 Sifting 5:22
12 Big Cheese
13 Downer 1:44

Live February 9, 1990 - Pine Street Theatre - Portland, 
Oregon
14 Intro 0:53
15 School 2:36
16 Floyd The Barber 2:17
17 Dive
18 Love Buzz
19 Spank Thru 2:59
20 Molly's Lips
21 Sappy 3:19
22 Scoff 3:53
23 About A Girl 2:28
24 Been A Son 2:01
25 Blew 4:32

EAC-Log, CUE-Sheed & NFO:

Click to open spoiler
REM COMMENT “CUETools generated dummy CUE sheet”
FILE “01 – Blew.flac” WAVE
TRACK 01 AUDIO
INDEX 01 00:00:00
FILE “02 – Floyd the Barber.flac” WAVE
TRACK 02 AUDIO
INDEX 01 00:00:00
FILE “03 – About a Girl.flac” WAVE
TRACK 03 AUDIO
INDEX 01 00:00:00
FILE “04 – School.flac” WAVE
TRACK 04 AUDIO
INDEX 01 00:00:00
FILE “05 – Love Buzz.flac” WAVE
TRACK 05 AUDIO
INDEX 01 00:00:00
FILE “06 – Paper Cuts.flac” WAVE
TRACK 06 AUDIO
INDEX 01 00:00:00
FILE “07 – Negative Creep.flac” WAVE
TRACK 07 AUDIO
INDEX 01 00:00:00
FILE “08 – Scoff.flac” WAVE
TRACK 08 AUDIO
INDEX 01 00:00:00
FILE “09 – Swap Meet.flac” WAVE
TRACK 09 AUDIO
INDEX 01 00:00:00
FILE “10 – Mr. Moustache.flac” WAVE
TRACK 10 AUDIO
INDEX 01 00:00:00
FILE “11 – Sifting.flac” WAVE
TRACK 11 AUDIO
INDEX 01 00:00:00
FILE “12 – Big Cheese.flac” WAVE
TRACK 12 AUDIO
INDEX 01 00:00:00
FILE “13 – Downer.flac” WAVE
TRACK 13 AUDIO
INDEX 01 00:00:00
FILE “14 – Intro [Live].flac” WAVE
TRACK 14 AUDIO
INDEX 01 00:00:00
FILE “15 – School [Live].flac” WAVE
TRACK 15 AUDIO
INDEX 01 00:00:00
FILE “16 – Floyd the Barber [Live].flac” WAVE
TRACK 16 AUDIO
INDEX 01 00:00:00
FILE “17 – Dive [Live].flac” WAVE
TRACK 17 AUDIO
INDEX 01 00:00:00
FILE “18 – Love Buzz [Live].flac” WAVE
TRACK 18 AUDIO
INDEX 01 00:00:00
FILE “19 – Spank Thru [Live].flac” WAVE
TRACK 19 AUDIO
INDEX 01 00:00:00
FILE “20 – Molly’s Lips [Live].flac” WAVE
TRACK 20 AUDIO
INDEX 01 00:00:00
FILE “21 – Sappy [Live].flac” WAVE
TRACK 21 AUDIO
INDEX 01 00:00:00
FILE “22 – Scoff [Live].flac” WAVE
TRACK 22 AUDIO
INDEX 01 00:00:00
FILE “23 – About a Girl [Live].flac” WAVE
TRACK 23 AUDIO
INDEX 01 00:00:00
FILE “24 – Been a Son [Live].flac” WAVE
TRACK 24 AUDIO
INDEX 01 00:00:00
FILE “25 – Blew [Live].flac” WAVE
TRACK 25 AUDIO
INDEX 01 00:00:00

Leave a Reply

Your email address will not be published. Required fields are marked *

This site uses Akismet to reduce spam. Learn how your comment data is processed.