Nirvana – Incesticide




Artist: Nirvana
Year: 1992
Genre: Punk
Notes: Discogs
Encoder: FLAC
Bitrate: ~1000 kBit/s (VBR)
Size: 329,61 MB
Hoster: Share-Online
Password: “slam” (without ” “)


Tracklist:

Dive (Album Version)
Sliver
Stain (Album Version)
Been A Son (Bbc Mark Goodier Session)
Turnaround (Bbc John Peel Session 1990)
Molly's Lips (Bbc John Peel Session 1990)
Son Of A Gun (Bbc John Peel Session 1990)
(New Wave) Polly (Bbc Mark Goodier Session)
Beeswax
Downer (Album Version)
Mexican Seafood
Hairspray Queen
Aero Zeppelin
Big Long Now (Album Version)
Aneurysm (Album Version)

Click to open spoiler
REM COMMENT “CUETools generated dummy CUE sheet”
FILE “01 – Dive.flac” WAVE
TRACK 01 AUDIO
INDEX 01 00:00:00
FILE “02 – Sliver.flac” WAVE
TRACK 02 AUDIO
INDEX 01 00:00:00
FILE “03 – Stain.flac” WAVE
TRACK 03 AUDIO
INDEX 01 00:00:00
FILE “04 – Been a Son.flac” WAVE
TRACK 04 AUDIO
INDEX 01 00:00:00
FILE “05 – Turnaround.flac” WAVE
TRACK 05 AUDIO
INDEX 01 00:00:00
FILE “06 – Molly’s Lips.flac” WAVE
TRACK 06 AUDIO
INDEX 01 00:00:00
FILE “07 – Son of a Gun.flac” WAVE
TRACK 07 AUDIO
INDEX 01 00:00:00
FILE “08 – (New Wave) Polly.flac” WAVE
TRACK 08 AUDIO
INDEX 01 00:00:00
FILE “09 – Beeswax.flac” WAVE
TRACK 09 AUDIO
INDEX 01 00:00:00
FILE “10 – Downer.flac” WAVE
TRACK 10 AUDIO
INDEX 01 00:00:00
FILE “11 – Mexican Seafood.flac” WAVE
TRACK 11 AUDIO
INDEX 01 00:00:00
FILE “12 – Hairspray Queen.flac” WAVE
TRACK 12 AUDIO
INDEX 01 00:00:00
FILE “13 – Aero Zeppelin.flac” WAVE
TRACK 13 AUDIO
INDEX 01 00:00:00
FILE “14 – Big Long Now.flac” WAVE
TRACK 14 AUDIO
INDEX 01 00:00:00
FILE “15 – Aneurysm.flac” WAVE
TRACK 15 AUDIO
INDEX 01 00:00:00

Leave a Reply

Your email address will not be published. Required fields are marked *

This site uses Akismet to reduce spam. Learn how your comment data is processed.