Nine Inch Nails – With Teeth (Remastered)




No Cover available

Artist: Nine Inch Nails
Year: 2005/2019
Genre: Metal
Notes: Discogs
Add. Notes: Remastered
Watch Songs on: YouTube
Cover incl.: Yes
Encoder: 24-bit FLAC
Bitrate: ~3000 kBit/s (96 kHz/24 Bit/s)
Log & Cue incl.: Yes/Yes
Size: 1263,8 MB
Password: “slam” (without ” “)


All Downloads/Hosters are compatible

Download 1
KatFile.com
Turbobit.net
Rapidgator.net
FileFactory.com
Download 2
KatFile.com
Turbobit.net
Rapidgator.net
FileFactory.com

Tracklist:

1 All The Love In The World 5:15
2 You Know What You Are? 3:42
3 The Collector 3:07
4 The Hand That Feeds 3:32
5 Love Is Not Enough 3:41
6 Every Day Is Exactly The Same 4:55
7 With Teeth 5:38
8 Only 4:23
9 Getting Smaller 3:36
10 Sunspots 4:03
11 Home 3:11
12 The Line Begins To Blur 3:44
13 Beside You In Time 5:25
14 Right Where It Belongs 5:08

EAC-Log, CUE-Sheed & NFO:

Click to open spoiler
foobar2000 1.1.10 / Dynamic Range Meter 1.1.1
log date: 2019-11-25 23:15:12

——————————————————————————–
Analyzed: Nine Inch Nails / With Teeth (2019 Definitive Edition)
——————————————————————————–

DR Peak RMS Duration Track
——————————————————————————–
DR8 -0.30 dB -12.61 dB 5:15 ?-All the Love In the World
DR5 -0.29 dB -6.89 dB 3:42 ?-You Know What You Are?
DR5 -0.25 dB -6.96 dB 3:07 ?-The Collector
DR5 -0.29 dB -6.34 dB 3:32 ?-The Hand That Feeds
DR5 -0.29 dB -7.55 dB 3:42 ?-Love Is Not Enough
DR5 -0.29 dB -7.29 dB 4:55 ?-Every Day Is Exactly the Same
DR7 -0.29 dB -9.54 dB 5:38 ?-With Teeth
DR6 -0.29 dB -7.28 dB 4:23 ?-Only
DR6 -0.29 dB -7.30 dB 3:36 ?-Getting Smaller
DR5 -0.29 dB -7.97 dB 4:02 ?-Sunspots
DR6 -0.30 dB -8.13 dB 3:13 ?-Home
DR5 -0.29 dB -5.86 dB 3:44 ?-The Line Begins To Blur
DR5 -0.30 dB -9.78 dB 5:25 ?-Beside You In Time
DR7 -0.30 dB -10.80 dB 5:05 ?-Right Where It Belongs
——————————————————————————–

Number of tracks: 14
Official DR value: DR6

Samplerate: 96000 Hz
Channels: 2
Bits per sample: 24
Bitrate: 2592 kbps
Codec: FLAC
================================================================================


Leave a Reply

Your email address will not be published. Required fields are marked *

Enter the text from the image below
 

This site uses Akismet to reduce spam. Learn how your comment data is processed.