Nine Inch Nails – Head Like A Hole (Maxi-Single)




No Cover available


Artist: Nine Inch Nails
Year: 1990
Genre: Rock
Notes: Discogs
Add. Notes:
Watch Songs on: YouTube
Cover incl.: Yes
Encoder: FLAC
Bitrate: ~900 kBit/s (44.1 kHz/16 Bit/s)
Log & Cue incl.: Yes/Yes
Size: 384,5 MB
Password: “slam” (without ” “)


All Downloads/Hosters are compatible

Download 1
KatFile.com
Turbobit.net
Rapidgator.net
FileFactory.com
Download 2
KatFile.com
Turbobit.net
Rapidgator.net
FileFactory.com

Tracklist:

1 Head Like A Hole (Slate) 4:18
2 Head Like A Hole (Clay) 4:34
3 Terrible Lie (Sympathetic Mix) 4:31
4 Head Like A Hole (Copper) 6:26
5 You Know Who You Are 5:42
6 Head Like A Hole (Soil) 6:38
7 Terrible Lie (Empathetic Mix) 6:17
8 Down In It (Shred) 7:00
9 Down In It (Singe) 7:21
10 Down In It (Demo) 3:52
11 Untitled 0:03

EAC-Log, CUE-Sheed & NFO:

Click to open spoiler
Exact Audio Copy V1.1 from 23. June 2015

EAC extraction logfile from 30. November 2016, 17:39

Nine Inch Nails / Head Like A Hole [TVT 2615-2]

Used drive : HL-DT-STDVDRAM GH24NSD0 Adapter: 1 ID: 0

Read mode : Secure
Utilize accurate stream : Yes
Defeat audio cache : Yes
Make use of C2 pointers : No

Read offset correction : 6
Overread into Lead-In and Lead-Out : No
Fill up missing offset samples with silence : Yes
Delete leading and trailing silent blocks : No
Null samples used in CRC calculations : Yes
Used interface : Native Win32 interface for Win NT & 2000
Gap handling : Appended to previous track

Used output format : User Defined Encoder
Selected bitrate : 768 kBit/s
Quality : High
Add ID3 tag : No
Command line compressor : C:\Program Files (x86)\Exact Audio Copy\FLAC\FLAC.EXE
Additional command line options : -V -8 -T “Genre=%genre%” -T “Artist=%artist%” -T “Title=%title%” -T “Album=%albumtitle%” -T “Date=%year%” -T “Tracknumber=%tracknr%” -T “Comment=%comment%” %source%

TOC of the extracted CD

Track | Start | Length | Start sector | End sector
———————————————————
1 | 0:00.32 | 4:18.60 | 32 | 19441
2 | 4:19.17 | 4:34.28 | 19442 | 40019
3 | 8:53.45 | 4:31.62 | 40020 | 60406
4 | 13:25.32 | 6:26.05 | 60407 | 89361
5 | 19:51.37 | 5:42.45 | 89362 | 115056
6 | 25:34.07 | 6:38.55 | 115057 | 144961
7 | 32:12.62 | 6:17.30 | 144962 | 173266
8 | 38:30.17 | 7:00.18 | 173267 | 204784
9 | 45:30.35 | 7:21.27 | 204785 | 237886
10 | 52:51.62 | 3:52.20 | 237887 | 255306
11 | 56:44.07 | 0:03.60 | 255307 | 255591

Track 1

Filename D:\g.y.m\Nine Inch Nails\[Halo 03] 1990. Head Like A Hole [TVT 2615-2]\01. Head Like A Hole (Slate).wav

Pre-gap length 0:00:02.32

Peak level 89.5 %
Extraction speed 1.1 X
Track quality 100.0 %
Test CRC 777332E2
Copy CRC 777332E2
Accurately ripped (confidence 143) [9DD6A0DC] (AR v2)
Copy OK

Track 2

Filename D:\g.y.m\Nine Inch Nails\[Halo 03] 1990. Head Like A Hole [TVT 2615-2]\02. Head Like A Hole (Clay).wav

Pre-gap length 0:00:04.67

Peak level 78.2 %
Extraction speed 1.2 X
Track quality 100.0 %
Test CRC 6D25D41A
Copy CRC 6D25D41A
Accurately ripped (confidence 141) [B474C1CA] (AR v2)
Copy OK

Track 3

Filename D:\g.y.m\Nine Inch Nails\[Halo 03] 1990. Head Like A Hole [TVT 2615-2]\03. Terrible Lie (Sympathetic Mix).wav

Pre-gap length 0:00:02.70

Peak level 100.0 %
Extraction speed 1.3 X
Track quality 100.0 %
Test CRC EB6340BE
Copy CRC EB6340BE
Accurately ripped (confidence 143) [EEAF836E] (AR v2)
Copy OK

Track 4

Filename D:\g.y.m\Nine Inch Nails\[Halo 03] 1990. Head Like A Hole [TVT 2615-2]\04. Head Like A Hole (Copper).wav

Pre-gap length 0:00:04.65

Peak level 90.7 %
Extraction speed 0.4 X
Track quality 99.9 %
Test CRC 455C2BB7
Copy CRC 455C2BB7
Accurately ripped (confidence 139) [86774330] (AR v2)
Copy OK

Track 5

Filename D:\g.y.m\Nine Inch Nails\[Halo 03] 1990. Head Like A Hole [TVT 2615-2]\05. You Know Who You Are.wav

Peak level 100.0 %
Extraction speed 1.5 X
Track quality 99.9 %
Test CRC 7D85B84F
Copy CRC 7D85B84F
Accurately ripped (confidence 141) [BBC39E2D] (AR v2)
Copy OK

Track 6

Filename D:\g.y.m\Nine Inch Nails\[Halo 03] 1990. Head Like A Hole [TVT 2615-2]\06. Head Like A Hole (Soil).wav

Pre-gap length 0:00:01.72

Peak level 94.3 %
Extraction speed 1.6 X
Track quality 99.9 %
Test CRC 386F0D04
Copy CRC 386F0D04
Accurately ripped (confidence 141) [6926D9D9] (AR v2)
Copy OK

Track 7

Filename D:\g.y.m\Nine Inch Nails\[Halo 03] 1990. Head Like A Hole [TVT 2615-2]\07. Terrible Lie (Empathetic Mix).wav

Peak level 100.0 %
Extraction speed 1.9 X
Track quality 100.0 %
Test CRC 53E3155E
Copy CRC 53E3155E
Accurately ripped (confidence 141) [64EB7EA4] (AR v2)
Copy OK

Track 8

Filename D:\g.y.m\Nine Inch Nails\[Halo 03] 1990. Head Like A Hole [TVT 2615-2]\08. Down In It (Shred).wav

Pre-gap length 0:00:05.12

Peak level 68.7 %
Extraction speed 2.0 X
Track quality 100.0 %
Test CRC 999010A7
Copy CRC 999010A7
Accurately ripped (confidence 140) [EFA74A8A] (AR v2)
Copy OK

Track 9

Filename D:\g.y.m\Nine Inch Nails\[Halo 03] 1990. Head Like A Hole [TVT 2615-2]\09. Down In It (Singe).wav

Pre-gap length 0:00:05.48

Peak level 59.8 %
Extraction speed 2.2 X
Track quality 100.0 %
Test CRC 2C9EA6E8
Copy CRC 2C9EA6E8
Accurately ripped (confidence 137) [55E7F8B1] (AR v2)
Copy OK

Track 10

Filename D:\g.y.m\Nine Inch Nails\[Halo 03] 1990. Head Like A Hole [TVT 2615-2]\10. Down In It (Demo).wav

Peak level 100.0 %
Extraction speed 2.1 X
Track quality 100.0 %
Test CRC 2FCCF783
Copy CRC 2FCCF783
Accurately ripped (confidence 139) [4A2423B5] (AR v2)
Copy OK

Track 11

Filename D:\g.y.m\Nine Inch Nails\[Halo 03] 1990. Head Like A Hole [TVT 2615-2]\11. Untitled.wav

Pre-gap length 0:00:00.60

Peak level 5.1 %
Extraction speed 0.2 X
Track quality 100.0 %
Test CRC 7EDB0A44
Copy CRC 7EDB0A44
Track not present in AccurateRip database
Copy OK

10 track(s) accurately ripped
1 track(s) not present in the AccurateRip database

Some tracks could not be verified as accurate

No errors occurred

End of status report

==== Log checksum D4EF7C3F5059B24E2421B7E3309ABF88D3AE2F7C4C34F941008281DE02F14D0E ====

REM GENRE Industrial
REM DATE 1990
REM DISCID 860D4F0B
REM COMMENT “ExactAudioCopy v1.1”
PERFORMER “Nine Inch Nails”
TITLE “Head Like A Hole [TVT 2615-2]”
FILE “01. Head Like A Hole (Slate).wav” WAVE
TRACK 01 AUDIO
TITLE “Head Like A Hole (Slate)”
PERFORMER “Nine Inch Nails”
PREGAP 00:00:32
INDEX 01 00:00:00
TRACK 02 AUDIO
TITLE “Head Like A Hole (Clay)”
PERFORMER “Nine Inch Nails”
INDEX 00 04:13:68
FILE “02. Head Like A Hole (Clay).wav” WAVE
INDEX 01 00:00:00
TRACK 03 AUDIO
TITLE “Terrible Lie (Sympathetic Mix)”
PERFORMER “Nine Inch Nails”
INDEX 00 04:31:33
FILE “03. Terrible Lie (Sympathetic Mix).wav” WAVE
INDEX 01 00:00:00
TRACK 04 AUDIO
TITLE “Head Like A Hole (Copper)”
PERFORMER “Nine Inch Nails”
INDEX 00 04:26:72
FILE “04. Head Like A Hole (Copper).wav” WAVE
INDEX 01 00:00:00
FILE “05. You Know Who You Are.wav” WAVE
TRACK 05 AUDIO
TITLE “You Know Who You Are”
PERFORMER “Nine Inch Nails”
INDEX 01 00:00:00
TRACK 06 AUDIO
TITLE “Head Like A Hole (Soil)”
PERFORMER “Nine Inch Nails”
INDEX 00 05:40:48
FILE “06. Head Like A Hole (Soil).wav” WAVE
INDEX 01 00:00:00
FILE “07. Terrible Lie (Empathetic Mix).wav” WAVE
TRACK 07 AUDIO
TITLE “Terrible Lie (Empathetic Mix)”
PERFORMER “Nine Inch Nails”
INDEX 01 00:00:00
TRACK 08 AUDIO
TITLE “Down In It (Shred)”
PERFORMER “Nine Inch Nails”
INDEX 00 06:12:18
FILE “08. Down In It (Shred).wav” WAVE
INDEX 01 00:00:00
TRACK 09 AUDIO
TITLE “Down In It (Singe)”
PERFORMER “Nine Inch Nails”
INDEX 00 06:54:45
FILE “09. Down In It (Singe).wav” WAVE
INDEX 01 00:00:00
FILE “10. Down In It (Demo).wav” WAVE
TRACK 10 AUDIO
TITLE “Down In It (Demo)”
PERFORMER “Nine Inch Nails”
INDEX 01 00:00:00
TRACK 11 AUDIO
TITLE “Untitled”
PERFORMER “Nine Inch Nails”
INDEX 00 03:51:35
FILE “11. Untitled.wav” WAVE
INDEX 01 00:00:00


0

Publication author

offline 5 days

Chaos

3
Comments: 4Publics: 3565Registration: 02-02-2019
Spread the Download

Leave a Reply

Your email address will not be published. Required fields are marked *

Enter the text from the image below
 

This site uses Akismet to reduce spam. Learn how your comment data is processed.