Nine Inch Nails – Fixed (Japanese Edition)




No Cover available

Artist: Nine Inch Nails
Year: 1992
Genre: Rock
Notes: Discogs
Add. Notes: Japanese Edition
Watch Songs on: YouTube
Cover incl.: Yes
Encoder: FLAC
Bitrate: ~900 kBit/s (44.1 kHz/16 Bit/s)
Log & Cue incl.: Yes/Yes
Size: 309,7 MB
Password: “slam” (without ” “)


All Downloads/Hosters are compatible

Download 1
KatFile.com
Turbobit.net
Rapidgator.net
FileFactory.com
Download 2
KatFile.com
Turbobit.net
Rapidgator.net
FileFactory.com

Tracklist:

1 Gave Up 5:24
2 Wish 9:10
3 Happiness In Slavery 6:09
4 Throw This Away 4:13
5 Fist Fuck 7:20
6 Screaming Slave 8:00

EAC-Log, CUE-Sheed & NFO:

Click to open spoiler
Exact Audio Copy V1.1 from 23. June 2015

EAC extraction logfile from 1. December 2016, 10:59

Nine Inch Nails / Fixed [AMCY-525]

Used drive : HL-DT-STDVDRAM GH24NSD0 Adapter: 1 ID: 0

Read mode : Secure
Utilize accurate stream : Yes
Defeat audio cache : Yes
Make use of C2 pointers : No

Read offset correction : 6
Overread into Lead-In and Lead-Out : No
Fill up missing offset samples with silence : Yes
Delete leading and trailing silent blocks : No
Null samples used in CRC calculations : Yes
Used interface : Native Win32 interface for Win NT & 2000
Gap handling : Appended to previous track

Used output format : User Defined Encoder
Selected bitrate : 768 kBit/s
Quality : High
Add ID3 tag : No
Command line compressor : C:\Program Files (x86)\Exact Audio Copy\FLAC\FLAC.EXE
Additional command line options : -V -8 -T “Genre=%genre%” -T “Artist=%artist%” -T “Title=%title%” -T “Album=%albumtitle%” -T “Date=%year%” -T “Tracknumber=%tracknr%” -T “Comment=%comment%” %source%

TOC of the extracted CD

Track | Start | Length | Start sector | End sector
———————————————————
1 | 0:00.00 | 5:25.37 | 0 | 24411
2 | 5:25.37 | 9:10.28 | 24412 | 65689
3 | 14:35.65 | 6:09.10 | 65690 | 93374
4 | 20:45.00 | 4:14.00 | 93375 | 112424
5 | 24:59.00 | 7:20.17 | 112425 | 145441
6 | 32:19.17 | 8:01.20 | 145442 | 181536

Track 1

Filename D:\g.y.m\Nine Inch Nails\[Halo 06] 1992. Fixed [AMCY-525]\01. Gave Up (Remixed By Coil With Danny Hyde).wav

Pre-gap length 0:00:02.00

Peak level 94.0 %
Extraction speed 1.1 X
Track quality 100.0 %
Test CRC 14EE2F96
Copy CRC 14EE2F96
Accurately ripped (confidence 2) [F585EF86] (AR v1)
Copy OK

Track 2

Filename D:\g.y.m\Nine Inch Nails\[Halo 06] 1992. Fixed [AMCY-525]\02. Wish (Remixed By J.G. Thirlwell).wav

Pre-gap length 0:00:02.07

Peak level 94.0 %
Extraction speed 1.3 X
Track quality 100.0 %
Test CRC 7F9B9C9E
Copy CRC 7F9B9C9E
Accurately ripped (confidence 2) [E7FCCFC9] (AR v1)
Copy OK

Track 3

Filename D:\g.y.m\Nine Inch Nails\[Halo 06] 1992. Fixed [AMCY-525]\03. Happiness In Slavery (Remixed By T. Reznor And Chris Vrenna With P.K.).wav

Pre-gap length 0:00:01.50

Peak level 94.0 %
Extraction speed 0.4 X
Track quality 100.0 %
Test CRC 55276945
Copy CRC 55276945
Accurately ripped (confidence 2) [4BF61E03] (AR v1)
Copy OK

Track 4

Filename D:\g.y.m\Nine Inch Nails\[Halo 06] 1992. Fixed [AMCY-525]\04. Throw This Away (Assembled By T. Reznor And C. Vrenna With Butch Vig).wav

Peak level 94.0 %
Extraction speed 1.5 X
Track quality 100.0 %
Test CRC 76B97686
Copy CRC 76B97686
Accurately ripped (confidence 2) [C6B6E146] (AR v1)
Copy OK

Track 5

Filename D:\g.y.m\Nine Inch Nails\[Halo 06] 1992. Fixed [AMCY-525]\05. Fist Fuck (Remixed By J.G. Thirlwell).wav

Peak level 94.0 %
Extraction speed 1.6 X
Track quality 99.9 %
Test CRC 396D8DE5
Copy CRC 396D8DE5
Accurately ripped (confidence 2) [E0A13D80] (AR v1)
Copy OK

Track 6

Filename D:\g.y.m\Nine Inch Nails\[Halo 06] 1992. Fixed [AMCY-525]\06. Screaming Slave (Reznor-Vrenna-Kennedy-Beavan-Brumbach-Flanagan).wav

Peak level 94.0 %
Extraction speed 1.9 X
Track quality 100.0 %
Test CRC 8B0283FA
Copy CRC 8B0283FA
Accurately ripped (confidence 2) [DB958518] (AR v1)
Copy OK

All tracks accurately ripped

No errors occurred

End of status report

==== Log checksum 034B121A3495F1C4E003EEC31E7D63BE5CC32D9771C9FE30CD566787F7C0D171 ====

REM GENRE Industrial
REM DATE 1992
REM DISCID 48097406
REM COMMENT “ExactAudioCopy v1.1”
PERFORMER “Nine Inch Nails”
TITLE “Fixed [AMCY-525]”
FILE “01. Gave Up (Remixed By Coil With Danny Hyde).wav” WAVE
TRACK 01 AUDIO
TITLE “Gave Up (Remixed By Coil With Danny Hyde)”
PERFORMER “Nine Inch Nails”
INDEX 01 00:00:00
TRACK 02 AUDIO
TITLE “Wish (Remixed By J.G. Thirlwell)”
PERFORMER “Nine Inch Nails”
INDEX 00 05:23:30
FILE “02. Wish (Remixed By J.G. Thirlwell).wav” WAVE
INDEX 01 00:00:00
TRACK 03 AUDIO
TITLE “Happiness In Slavery (Remixed By T. Reznor And Chris Vrenna With P.K.)”
PERFORMER “Nine Inch Nails”
INDEX 00 09:08:53
FILE “03. Happiness In Slavery (Remixed By T. Reznor And Chris Vrenna With P.K.).wav” WAVE
INDEX 01 00:00:00
FILE “04. Throw This Away (Assembled By T. Reznor And C. Vrenna With Butch Vig).wav” WAVE
TRACK 04 AUDIO
TITLE “Throw This Away (Assembled By T. Reznor And C. Vrenna With Butch Vig)”
PERFORMER “Nine Inch Nails”
INDEX 01 00:00:00
FILE “05. Fist Fuck (Remixed By J.G. Thirlwell).wav” WAVE
TRACK 05 AUDIO
TITLE “Fist Fuck (Remixed By J.G. Thirlwell)”
PERFORMER “Nine Inch Nails”
INDEX 01 00:00:00
FILE “06. Screaming Slave (Reznor-Vrenna-Kennedy-Beavan-Brumbach-Flanagan).wav” WAVE
TRACK 06 AUDIO
TITLE “Screaming Slave (Reznor/Vrenna/Kennedy/Beavan/Brumbach/Flanagan)”
PERFORMER “Nine Inch Nails”
INDEX 01 00:00:00


Leave a Reply

Your email address will not be published. Required fields are marked *

This site uses Akismet to reduce spam. Learn how your comment data is processed.