Nine Inch Nails – Every Day Is Exactly The Same




No Cover available

Artist: Nine Inch Nails
Year: 2006
Genre: Rock
Notes: Discogs
Add. Notes:
Watch Songs on: YouTube
Cover incl.: Yes
Encoder: FLAC
Bitrate: ~1000 kBit/s (44.1 kHz/16 Bit/s)
Log & Cue incl.: Yes/Yes
Size: 299,4 MB
Password: “slam” (without ” “)


All Downloads/Hosters are compatible

Download 1
KatFile.com
Turbobit.net
Rapidgator.net
FileFactory.com
Download 2
KatFile.com
Turbobit.net
Rapidgator.net
FileFactory.com

Tracklist:

1 Every Day Is Exactly The Same 4:57
2 The Hand That Feeds (DFA Mix) 9:03
3 The Hand That Feeds (Photek Straight Mix) 7:47
4 Only (El-P Mix) 4:22
5 Only (Richard X Mix) 7:25
6 Every Day Is Exactly The Same (Sam Fog vs. Carlos D 
Mix) 5:03

EAC-Log, CUE-Sheed & NFO:

Click to open spoiler
Exact Audio Copy V1.1 from 23. June 2015

EAC extraction logfile from 6. December 2016, 9:53

Nine Inch Nails / [Every Day Is Exactly The Same] [B0006589-22]

Used drive : HL-DT-STDVDRAM GH24NSD0 Adapter: 1 ID: 0

Read mode : Secure
Utilize accurate stream : Yes
Defeat audio cache : Yes
Make use of C2 pointers : No

Read offset correction : 6
Overread into Lead-In and Lead-Out : No
Fill up missing offset samples with silence : Yes
Delete leading and trailing silent blocks : No
Null samples used in CRC calculations : Yes
Used interface : Native Win32 interface for Win NT & 2000
Gap handling : Appended to previous track

Used output format : User Defined Encoder
Selected bitrate : 768 kBit/s
Quality : High
Add ID3 tag : No
Command line compressor : C:\Program Files (x86)\Exact Audio Copy\FLAC\FLAC.EXE
Additional command line options : -V -8 -T “Genre=%genre%” -T “Artist=%artist%” -T “Title=%title%” -T “Album=%albumtitle%” -T “Date=%year%” -T “Tracknumber=%tracknr%” -T “Comment=%comment%” %source%

TOC of the extracted CD

Track | Start | Length | Start sector | End sector
———————————————————
1 | 0:00.00 | 4:57.06 | 0 | 22280
2 | 4:57.06 | 9:03.33 | 22281 | 63038
3 | 14:00.39 | 7:47.23 | 63039 | 98086
4 | 21:47.62 | 4:22.40 | 98087 | 117776
5 | 26:10.27 | 7:25.71 | 117777 | 151222
6 | 33:36.23 | 5:03.08 | 151223 | 173955

Track 1

Filename D:\g.y.m\Nine Inch Nails\[Halo 21] 2006. [Every Day Is Exactly The Same] [B0006589-22]\01. Every Day Is Exactly The Same.wav

Pre-gap length 0:00:02.00

Peak level 98.8 %
Extraction speed 5.1 X
Track quality 100.0 %
Test CRC B2E400CF
Copy CRC B2E400CF
Accurately ripped (confidence 65) [B8E71EB3] (AR v2)
Copy OK

Track 2

Filename D:\g.y.m\Nine Inch Nails\[Halo 21] 2006. [Every Day Is Exactly The Same] [B0006589-22]\02. The Hand That Feeds (DFA Mix).wav

Pre-gap length 0:00:02.00

Peak level 98.8 %
Extraction speed 6.1 X
Track quality 100.0 %
Test CRC 9B01CD6D
Copy CRC 9B01CD6D
Accurately ripped (confidence 64) [618FBA45] (AR v2)
Copy OK

Track 3

Filename D:\g.y.m\Nine Inch Nails\[Halo 21] 2006. [Every Day Is Exactly The Same] [B0006589-22]\03. The Hand That Feeds (Photek Straight Mix).wav

Pre-gap length 0:00:01.74

Peak level 98.8 %
Extraction speed 6.9 X
Track quality 100.0 %
Test CRC E75277D2
Copy CRC E75277D2
Accurately ripped (confidence 64) [71CF1315] (AR v2)
Copy OK

Track 4

Filename D:\g.y.m\Nine Inch Nails\[Halo 21] 2006. [Every Day Is Exactly The Same] [B0006589-22]\04. Only (EL-P Mix).wav

Pre-gap length 0:00:01.74

Peak level 98.8 %
Extraction speed 7.0 X
Track quality 100.0 %
Test CRC AE81B12B
Copy CRC AE81B12B
Accurately ripped (confidence 63) [A80FB135] (AR v2)
Copy OK

Track 5

Filename D:\g.y.m\Nine Inch Nails\[Halo 21] 2006. [Every Day Is Exactly The Same] [B0006589-22]\05. Only (Richard X Mix).wav

Pre-gap length 0:00:01.74

Peak level 98.8 %
Extraction speed 7.9 X
Track quality 100.0 %
Test CRC 3A2C07AF
Copy CRC 3A2C07AF
Accurately ripped (confidence 65) [53EF132B] (AR v2)
Copy OK

Track 6

Filename D:\g.y.m\Nine Inch Nails\[Halo 21] 2006. [Every Day Is Exactly The Same] [B0006589-22]\06. Every Day Is Exactly The Same (Sam Fog vs. Carlos D Mix).wav

Pre-gap length 0:00:01.74

Peak level 98.8 %
Extraction speed 7.2 X
Track quality 99.9 %
Test CRC 5EB64AC0
Copy CRC 5EB64AC0
Accurately ripped (confidence 64) [7476A2CD] (AR v2)
Copy OK

All tracks accurately ripped

No errors occurred

End of status report

==== Log checksum 15389761217AE5AEEECE4102A5DAC3A7F97D66C99A7BB3A76461280A6E34D20F ====

REM GENRE Industrial
REM DATE 2006
REM DISCID 4B090F06
REM COMMENT “ExactAudioCopy v1.1”
PERFORMER “Nine Inch Nails”
TITLE “[Every Day Is Exactly The Same] [B0006589-22]”
FILE “01. Every Day Is Exactly The Same.wav” WAVE
TRACK 01 AUDIO
TITLE “Every Day Is Exactly The Same”
PERFORMER “Nine Inch Nails”
INDEX 01 00:00:00
TRACK 02 AUDIO
TITLE “The Hand That Feeds (DFA Mix)”
PERFORMER “Nine Inch Nails”
INDEX 00 04:55:06
FILE “02. The Hand That Feeds (DFA Mix).wav” WAVE
INDEX 01 00:00:00
TRACK 03 AUDIO
TITLE “The Hand That Feeds (Photek Straight Mix)”
PERFORMER “Nine Inch Nails”
INDEX 00 09:01:34
FILE “03. The Hand That Feeds (Photek Straight Mix).wav” WAVE
INDEX 01 00:00:00
TRACK 04 AUDIO
TITLE “Only (EL-P Mix)”
PERFORMER “Nine Inch Nails”
INDEX 00 07:45:24
FILE “04. Only (EL-P Mix).wav” WAVE
INDEX 01 00:00:00
TRACK 05 AUDIO
TITLE “Only (Richard X Mix)”
PERFORMER “Nine Inch Nails”
INDEX 00 04:20:41
FILE “05. Only (Richard X Mix).wav” WAVE
INDEX 01 00:00:00
TRACK 06 AUDIO
TITLE “Every Day Is Exactly The Same (Sam Fog vs. Carlos D Mix)”
PERFORMER “Nine Inch Nails”
INDEX 00 07:23:72
FILE “06. Every Day Is Exactly The Same (Sam Fog vs. Carlos D Mix).wav” WAVE
INDEX 01 00:00:00


0

Publication author

offline 14 hours

Chaos

3
Comments: 4Publics: 3418Registration: 02-02-2019
Spread the Download

Leave a Reply

Your email address will not be published. Required fields are marked *

Enter the text from the image below
 

This site uses Akismet to reduce spam. Learn how your comment data is processed.