Nina Hagen – Sternenmädchen




Artist: Nina Hagen
Year: 2001
Genre: Rock
Notes: Discogs
Add. Notes:
Encoder: FLAC
Bitrate: ~1000 kBit/s (44.1 kHz/16 Bit/s)
Size: 389,37 MB
Password: “slam” (without ” “)


http://www.share-online.biz/dl/1UZNWARPCR
https://rapidgator.net/file/9a26a3d909c9f7fc0ed7ab66d4588483
https://ayefiles.com/ajh1ll4tlr9c/NiHa-StMa-SLAM.rar.html
https://hitfile.net/mGsSxCM

Onlinestatus: Turbobit.net Rapidgator.net AyeFiles.com Hitfile.net

Tracklist:

1. Riesenschritt
2. Freiheitslied
3. Wir tanzen Tango
4. Tiere
5. Du Hast Den Farbfilm Vergessen
6. Zero Zero U.F.O.
7. I Am Nina (Junkie)
8. Born To Die In Berlin
9. Sunday Morning
10. Honigmann
11. Wenn Ich An Dich Denk
12. Shiva
13. Hold Me
14. Abgehaun
15. Erfurt & Gera
16. Sternmädchen
17. Hit Me With Your Rhythm Stick
18. Lass mich in Ruhe

EAC-Log, CUE-Sheed & NFO:

Click to open spoiler
Exact Audio Copy V1.0 beta 3 from 29. August 2011

EAC extraction logfile from 16. May 2012, 13:09

Nina Hagen / Sternenmadchen

Used drive : PIONEER DVD-RW DVR-118L Adapter: 0 ID: 0

Read mode : Secure
Utilize accurate stream : Yes
Defeat audio cache : Yes
Make use of C2 pointers : No

Read offset correction : 6
Overread into Lead-In and Lead-Out : No
Fill up missing offset samples with silence : Yes
Delete leading and trailing silent blocks : No
Null samples used in CRC calculations : Yes
Used interface : Native Win32 interface for Win NT & 2000

Used output format : User Defined Encoder
Selected bitrate : 1024 kBit/s
Quality : High
Add ID3 tag : No
Command line compressor : C:\Program Files\Exact Audio Copy\Flac\flac.exe
Additional command line options : -V -8 -T “Date=%year%” -T “Genre=%genre%” %source%

TOC of the extracted CD

Track | Start | Length | Start sector | End sector
———————————————————
1 | 0:00.00 | 3:06.00 | 0 | 13949
2 | 3:06.00 | 3:21.27 | 13950 | 29051
3 | 6:27.27 | 2:59.48 | 29052 | 42524
4 | 9:27.00 | 3:29.00 | 42525 | 58199
5 | 12:56.00 | 3:04.00 | 58200 | 71999
6 | 16:00.00 | 2:36.00 | 72000 | 83699
7 | 18:36.00 | 1:21.25 | 83700 | 89799
8 | 19:57.25 | 3:19.50 | 89800 | 104774
9 | 23:17.00 | 2:48.27 | 104775 | 117401
10 | 26:05.27 | 4:22.23 | 117402 | 137074
11 | 30:27.50 | 3:38.52 | 137075 | 153476
12 | 34:06.27 | 4:12.23 | 153477 | 172399
13 | 38:18.50 | 4:07.52 | 172400 | 190976
14 | 42:26.27 | 3:43.48 | 190977 | 207749
15 | 46:10.00 | 2:53.27 | 207750 | 220751
16 | 49:03.27 | 2:50.48 | 220752 | 233549
17 | 51:54.00 | 4:11.00 | 233550 | 252374
18 | 56:05.00 | 1:49.00 | 252375 | 260549

Range status and errors

Selected range

Filename E:\Nina Hagen – Sternenmadchen.wav

Peak level 98.0 %
Extraction speed 1.8 X
Range quality 100.0 %
Test CRC 2032B4D1
Copy CRC 2032B4D1
Copy OK

No errors occurred

AccurateRip summary

Track 1 accurately ripped (confidence 6) [F12B74F1] (AR v1)
Track 2 accurately ripped (confidence 6) [7C3B8B14] (AR v1)
Track 3 accurately ripped (confidence 6) [31EDBE0B] (AR v1)
Track 4 accurately ripped (confidence 6) [C8E13DA4] (AR v1)
Track 5 accurately ripped (confidence 6) [FBA091B3] (AR v1)
Track 6 accurately ripped (confidence 6) [52070C87] (AR v1)
Track 7 accurately ripped (confidence 6) [8E79F133] (AR v1)
Track 8 accurately ripped (confidence 6) [3F0C0EEB] (AR v1)
Track 9 accurately ripped (confidence 6) [9C825460] (AR v1)
Track 10 accurately ripped (confidence 6) [8483E480] (AR v1)
Track 11 accurately ripped (confidence 6) [CAE22520] (AR v1)
Track 12 accurately ripped (confidence 6) [273DA706] (AR v1)
Track 13 accurately ripped (confidence 6) [6848C957] (AR v1)
Track 14 accurately ripped (confidence 6) [9D1E820D] (AR v1)
Track 15 accurately ripped (confidence 6) [4AF6DD22] (AR v1)
Track 16 accurately ripped (confidence 6) [642D3569] (AR v1)
Track 17 accurately ripped (confidence 6) [DD0202BC] (AR v1)
Track 18 accurately ripped (confidence 6) [3F363ADA] (AR v1)

All tracks accurately ripped

End of status report

—- CUETools DB Plugin V2.1.4

[CTDB TOCID: S31E_ZS_DWWJ8NGjI6DC56rBPmw-] disk not present in database
Submit result: S31E_ZS_DWWJ8NGjI6DC56rBPmw- has been uploaded

==== Log checksum 0BF26F76B752310F4A5D71CCBBF9971BB32551B9E847EA266112255397FB283C ====

REM GENRE Rock
REM DATE 2001
REM DISCID 290D9212
REM COMMENT “ExactAudioCopy v1.0b3”
PERFORMER “Nina Hagen”
TITLE “Sternenmadchen”
FILE “Nina Hagen – Sternenmadchen.flac” WAVE
TRACK 01 AUDIO
TITLE “Riesenschritt”
PERFORMER “Nina Hagen”
ISRC DEC769500391
INDEX 01 00:00:00
TRACK 02 AUDIO
TITLE “Freiheitslied”
PERFORMER “Nina Hagen”
ISRC DEC769500388
INDEX 00 03:04:27
INDEX 01 03:06:00
TRACK 03 AUDIO
TITLE “Wir Tanzen Tango”
PERFORMER “Nina Hagen”
ISRC DEC739600097
INDEX 00 06:25:25
INDEX 01 06:27:27
TRACK 04 AUDIO
TITLE “Tiere”
PERFORMER “Nina Hagen”
ISRC DEC769500375
INDEX 00 09:25:00
INDEX 01 09:27:00
TRACK 05 AUDIO
TITLE “Du Hast Den Farbfilm Vergessen”
PERFORMER “Nina Hagen”
ISRC DEC719400510
INDEX 00 12:54:05
INDEX 01 12:56:00
TRACK 06 AUDIO
TITLE “Zero Zero U.F.O.”
PERFORMER “Nina Hagen”
ISRC DEC769500383
INDEX 00 15:58:07
INDEX 01 16:00:00
TRACK 07 AUDIO
TITLE “I Am Nina (Junkie)”
PERFORMER “Nina Hagen”
ISRC DEC769600069
INDEX 00 18:34:10
INDEX 01 18:36:00
TRACK 08 AUDIO
TITLE “Born To Die In Berlin”
PERFORMER “Nina Hagen”
ISRC DEC769600063
INDEX 00 19:55:05
INDEX 01 19:57:25
TRACK 09 AUDIO
TITLE “Sunday Morning”
PERFORMER “Nina Hagen”
ISRC DEC769600064
INDEX 00 23:15:20
INDEX 01 23:17:00
TRACK 10 AUDIO
TITLE “Honigmann”
PERFORMER “Nina Hagen”
ISRC DEC739600107
INDEX 00 26:03:45
INDEX 01 26:05:27
TRACK 11 AUDIO
TITLE “Wenn Ich An Dich Denk”
PERFORMER “Nina Hagen”
ISRC DEC739400586
INDEX 00 30:25:35
INDEX 01 30:27:50
TRACK 12 AUDIO
TITLE “Shiva”
PERFORMER “Nina Hagen”
ISRC DEC769600022
INDEX 00 34:04:12
INDEX 01 34:06:27
TRACK 13 AUDIO
TITLE “Hold Me”
PERFORMER “Nina Hagen”
INDEX 00 38:17:12
INDEX 01 38:18:50
TRACK 14 AUDIO
TITLE “Abgehaun”
PERFORMER “Nina Hagen”
ISRC DEC769500387
INDEX 00 42:24:32
INDEX 01 42:26:27
TRACK 15 AUDIO
TITLE “Erfurt & Gera”
PERFORMER “Nina Hagen”
INDEX 00 46:08:00
INDEX 01 46:10:00
TRACK 16 AUDIO
TITLE “Sternmadchen”
PERFORMER “Nina Hagen”
ISRC DEC769500392
INDEX 00 49:01:17
INDEX 01 49:03:27
TRACK 17 AUDIO
TITLE “Hit Me With Your Rhythm Stick”
PERFORMER “Nina Hagen”
ISRC DEC769300128
INDEX 00 51:51:62
INDEX 01 51:54:00
TRACK 18 AUDIO
TITLE “Lass Mich In Ruhe”
PERFORMER “Nina Hagen”
ISRC DEC769500380
INDEX 00 56:02:55
INDEX 01 56:05:00

Leave a Reply

Your email address will not be published. Required fields are marked *

Enter the text from the image below
 

This site uses Akismet to reduce spam. Learn how your comment data is processed.