Nina Hagen – Return Of The Mother




No Cover available

Artist: Nina Hagen
Year: 2000
Genre: Rock
Notes: Discogs
Add. Notes:
Watch Songs on: YouTube
Cover incl.: Yes
Encoder: FLAC
Bitrate: ~1000 kBit/s (44.1 kHz/16 Bit/s)
Log & Cue incl.: Yes/Yes
Size: 334,5 MB
Password: “slam” (without ” “)


All Downloads/Hosters are compatible

Download 1
KatFile.com
Turbobit.net
Rapidgator.net
FileFactory.com
Download 2
KatFile.com
Turbobit.net
Rapidgator.net
FileFactory.com

Tracklist:

1 Return Of The Mother 4:36
2 Der Wind Hat Mir Ein Lied Erzählt 3:49
3 Schachmatt 5:07
4 Frequenzkontrolle 4:57
5 Poetenklub 5:03
6 Höllenzug 3:22
7 Schüttel Mich 3:51
8 Yes Sir 4:05
9 Handgrenade 4:31
10 He Shiva Shankara 5:47

EAC-Log, CUE-Sheed & NFO:

Click to open spoiler
Exact Audio Copy V0.99 prebeta 3 from 28. July 2007

EAC extraction logfile from 21. August 2007, 16:16

Nina Hagen / Return Of The Mother

Used drive : Optiarc DVD RW AD-7170A Adapter: 1 ID: 0

Read mode : Secure
Utilize accurate stream : Yes
Defeat audio cache : No
Make use of C2 pointers : Yes

Read offset correction : 48
Overread into Lead-In and Lead-Out : Yes
Fill up missing offset samples with silence : Yes
Delete leading and trailing silent blocks : No
Null samples used in CRC calculations : Yes
Used interface : Native Win32 interface for Win NT & 2000

Used output format : Internal WAV Routines
Sample format : 44.100 Hz; 16 Bit; Stereo

TOC of the extracted CD

Track | Start | Length | Start sector | End sector
———————————————————
1 | 0:00.00 | 4:36.04 | 0 | 20703
2 | 4:36.04 | 3:50.58 | 20704 | 38011
3 | 8:26.62 | 5:06.10 | 38012 | 60971
4 | 13:32.72 | 4:55.03 | 60972 | 83099
5 | 18:28.00 | 5:02.01 | 83100 | 105750
6 | 23:30.01 | 3:21.60 | 105751 | 120885
7 | 26:51.61 | 3:52.01 | 120886 | 138286
8 | 30:43.62 | 4:05.11 | 138287 | 156672
9 | 34:48.73 | 4:32.00 | 156673 | 177072
10 | 39:20.73 | 5:47.50 | 177073 | 203147

Range status and errors

Selected range

Filename C:\all\Nina Hagen – Return Of The Mother.wav

Peak level 99.2 %
Range quality 100.0 %
Copy CRC 5D8FE5C8
Copy OK

No errors occurred

AccurateRip summary

Track 1 accurately ripped (confidence 3) [55867AD9]
Track 2 accurately ripped (confidence 3) [D6901A94]
Track 3 accurately ripped (confidence 3) [EB27A201]
Track 4 accurately ripped (confidence 3) [0A6062FD]
Track 5 accurately ripped (confidence 3) [8EEBF03E]
Track 6 accurately ripped (confidence 3) [B120B111]
Track 7 accurately ripped (confidence 3) [163F0313]
Track 8 accurately ripped (confidence 4) [E5036C24]
Track 9 accurately ripped (confidence 3) [5B92CB86]
Track 10 accurately ripped (confidence 2) [926A0304]

All tracks accurately ripped

End of status report

REM GENRE Rock
REM DISCID 6D0A940A
REM COMMENT “ExactAudioCopy v0.99pb3”
PERFORMER “Nina Hagen”
TITLE “Return Of The Mother”
FILE “Nina Hagen – Return Of The Mother.flac” WAVE
TRACK 01 AUDIO
TITLE “Return Of The Mother”
PERFORMER “Nina Hagen”
INDEX 01 00:00:00
TRACK 02 AUDIO
TITLE “Der Wind Hat Mir Ein Lied Erzählt”
PERFORMER “Nina Hagen”
INDEX 01 04:36:04
TRACK 03 AUDIO
TITLE “Schachmatt”
PERFORMER “Nina Hagen”
INDEX 01 08:26:62
TRACK 04 AUDIO
TITLE “Frequenzkontrolle”
PERFORMER “Nina Hagen”
INDEX 01 13:32:72
TRACK 05 AUDIO
TITLE “Poetenclub”
PERFORMER “Nina Hagen”
INDEX 01 18:28:00
TRACK 06 AUDIO
TITLE “Höllenzug”
PERFORMER “Nina Hagen”
INDEX 01 23:30:01
TRACK 07 AUDIO
TITLE “Schüttel Mich”
PERFORMER “Nina Hagen”
INDEX 01 26:51:61
TRACK 08 AUDIO
TITLE “Yes Sir”
PERFORMER “Nina Hagen”
INDEX 01 30:43:62
TRACK 09 AUDIO
TITLE “Handgrenade”
PERFORMER “Nina Hagen”
INDEX 00 34:48:43
INDEX 01 34:48:73
TRACK 10 AUDIO
TITLE “He Shiva Shankara”
PERFORMER “Nina Hagen”
INDEX 01 39:20:73


0

Publication author

offline 7 days

Chaos

3
Comments: 4Publics: 3565Registration: 02-02-2019
Spread the Download

Leave a Reply

Your email address will not be published. Required fields are marked *

Enter the text from the image below
 

This site uses Akismet to reduce spam. Learn how your comment data is processed.